BitTorrentTracker PerecTracker.org
BitTorrentTracker PerecTracker.org
    
Регистрация  ·  Вход
 
 · 
Забыли пароль?

  • Непорочные / Невинные / Les innocentes / The Innocents (Анн Фонтен / Anne Fontaine) [2016, Франция, Польша, Бельгия, драма, BDRip 1080p] AVO (Алексеев) + Original Fra + Sub Fra

    Ответить на тему
     
    Автор Сообщение

    Light

    Создавать темы 24-Сен-2016 00:40

           

    [Цитировать]

    Непорочные / Невинные / Les innocentes / The Innocents
    Страна: Франция, Польша, Бельгия
    Студия: A Plus Image 6, Aeroplan Film, Antenne-2 (A2), Canal+ [fr], Ciné, Cofinova 11, Eurimages, France 2 Cinéma, La Banque Postale Image 8, Mandarin Films, Mars Films, NC+, Polish Film Institute, Scope Pictures, Sofica Manon 5
    Жанр: Драма
    Год выпуска: 2016
    Продолжительность: 01:55:13
    Перевод: Авторский (одноголосый закадровый) Антон Алексеев
    Cубтитры: французские
    Оригинальная аудиодорожка: французский
    Режиссер: Анн Фонтен / Anne Fontaine
    В ролях: Лу де Лааж, Агата Бузек, Агата Кулеша, Венсан Макен, Джоэнна Кулиг, Элиза Рыцембель, Катажина Дабровска, Анна Прухняк, Хелена Суецкая, Мира Малюжинска
    Описание: Польша, зима 1945 года. Французский Красный крест занимается репатриацией своих граждан, уцелевших в фашистских концлагерях, и временно размещает их в больнице. Среди медиков работает молоденькая Матильда Больё. Однажды в больницу приезжает монахиня из близлежащего монастыря и на ломаном французском умоляет о помощи умирающей. Как оказалось, надо принять роды у одной из монахинь. Настоятельница монастыря хочет любой ценой сохранить тайну, чтобы избежать скандала. Встреченная с недоверием, Матильда вступает в неизвестный ей мир и близко знакомится с сестрой Марией. Вместе они открывают ужасающую правду, скрытую за стенами монастыря...
    Дополнительная информация:
    Автор релиза - ylnian
    Заказ перевода у Антона Алексеева (сентябрь 2016) - ylnian
    За сборку дороги спасибо rammzez
    Источник для рипа - Blu-Ray (FRA) - Les.Innocentes.2016.FRENCH.COMPLETE.BLURAY-4FR
    Сохранены чаптеры с BD
    Субтитры рипнуты мной с BD


    Сэмпл: https://yadi.sk/i/QhWq7X3zvaCCM
    Качество видео: BDRip 1080p
    Формат видео: MKV
    Видео: MPEG-4, 1920x1036 (1,85:1), 11200 kbps, 24.000 fps
    Аудио 1: Русский DTS 5.1 / 48 kHz / 1509 kbps / 16-bit
    Аудио 2: Французский DTS 5.1 / 48 kHz / 1509 kbps / 16-bit
    Формат субтитров: softsub (SRT)

    MediaInfo

    ---[Information] [20.09.2016 5:34:57] x264 [info]: frame I:826 Avg QP:13.06 size:229578
    ---[Information] [20.09.2016 5:34:57] x264 [info]: frame P:30087 Avg QP:14.47 size:108073
    ---[Information] [20.09.2016 5:34:57] x264 [info]: frame B:134999 Avg QP:16.01 size: 46519
    ---[Information] [20.09.2016 5:34:57] x264 [info]: consecutive B-frames: 1.0% 1.7% 3.1% 13.8% 11.5% 34.3% 10.3% 16.2% 2.7% 0.6% 1.9% 2.9%
    ---[Information] [20.09.2016 5:34:57] x264 [info]: mb I I16..4: 5.1% 86.4% 8.4%
    ---[Information] [20.09.2016 5:34:57] x264 [info]: mb P I16..4: 0.6% 13.7% 0.6% P16..4: 25.2% 37.6% 14.5% 2.3% 0.1% skip: 5.4%
    ---[Information] [20.09.2016 5:34:57] x264 [info]: mb B I16..4: 0.1% 1.0% 0.0% B16..8: 42.7% 31.7% 7.1% direct: 3.2% skip:14.2% L0:45.3% L1:43.9% BI:10.8%
    ---[Information] [20.09.2016 5:34:57] x264 [info]: 8x8 transform intra:91.4% inter:54.1%
    ---[Information] [20.09.2016 5:34:57] x264 [info]: direct mvs spatial:35.9% temporal:64.1%
    ---[Information] [20.09.2016 5:34:57] x264 [info]: coded y,uvDC,uvAC intra: 94.1% 95.1% 88.4% inter: 30.6% 41.3% 18.9%
    ---[Information] [20.09.2016 5:34:57] x264 [info]: i16 v,h,dc,p: 17% 6% 5% 72%
    ---[Information] [20.09.2016 5:34:57] x264 [info]: i8 v,h,dc,ddl,ddr,vr,hd,vl,hu: 7% 5% 9% 12% 15% 14% 13% 13% 13%
    ---[Information] [20.09.2016 5:34:57] x264 [info]: i4 v,h,dc,ddl,ddr,vr,hd,vl,hu: 10% 5% 6% 11% 17% 16% 13% 12% 12%
    ---[Information] [20.09.2016 5:34:57] x264 [info]: i8c dc,h,v,p: 65% 13% 11% 11%
    ---[Information] [20.09.2016 5:34:57] x264 [info]: Weighted P-Frames: Y:2.4% UV:1.2%
    ---[Information] [20.09.2016 5:34:57] x264 [info]: ref P L0: 51.7% 5.5% 29.2% 13.1% 0.6% 0.0%
    ---[Information] [20.09.2016 5:34:57] x264 [info]: ref B L0: 86.3% 11.2% 2.5%
    ---[Information] [20.09.2016 5:34:57] x264 [info]: ref B L1: 90.8% 9.2%
    ---[Information] [20.09.2016 5:34:57] x264 [info]: kb/s:11249.79
    Общее
    Уникальный идентификатор : 244461971929967799377657288771570534289 (0xB7E9A9C78027D244AD11FA2EE6F48791)
    Полное имя : D:\Les.innocentes.2016.BDRip.1080p-ylnian.mkv
    Формат : Matroska
    Версия формата : Version 4 / Version 2
    Размер файла : 11,5 Гбайт
    Продолжительность : 1 ч. 55 м.
    Общий поток : 14,3 Мбит/сек
    Название фильма : Les.innocentes.2016.BDRip.1080p-ylnian
    Дата кодирования : UTC 2016-09-23 06:02:39
    Программа кодирования : mkvmerge v9.3.1 ('Mask Machine') 64bit
    Библиотека кодирования : libebml v1.3.4 + libmatroska v1.4.5
    Видео
    Идентификатор : 1
    Формат : AVC
    Формат/Информация : Advanced Video Codec
    Профиль формата : High@L4.1
    Параметр CABAC формата : Да
    Параметр ReFrames формата : 4 кадра
    Идентификатор кодека : V_MPEG4/ISO/AVC
    Продолжительность : 1 ч. 55 м.
    Битрейт : 11,2 Мбит/сек
    Ширина : 1920 пикселей
    Высота : 1036 пикселей
    Соотношение сторон : 1,85:1
    Режим частоты кадров : Постоянный
    Частота кадров : 24,000 кадра/сек
    Цветовое пространство : YUV
    Субдискретизация насыщенности : 4:2:0
    Битовая глубина : 8 бит
    Тип развёртки : Прогрессивная
    Бит/(Пиксели*Кадры) : 0.236
    Размер потока : 9,05 Гбайт (79%)
    Заголовок : Les.innocentes.2016.BDRip.1080p-ylnian
    Библиотека кодирования : x264 core 148 r2638 7599210
    Настройки программы : cabac=1 / ref=4 / deblock=1:-3:-3 / analyse=0x3:0x133 / me=umh / subme=11 / psy=1 / psy_rd=1.05:0.00 / mixed_ref=1 / me_range=32 / chroma_me=1 / trellis=2 / 8x8dct=1 / cqm=0 / deadzone=21,11 / fast_pskip=0 / chroma_qp_offset=-4 / threads=12 / lookahead_threads=3 / sliced_threads=0 / nr=0 / decimate=1 / interlaced=0 / bluray_compat=0 / constrained_intra=0 / bframes=11 / b_pyramid=2 / b_adapt=2 / b_bias=0 / direct=2 / weightb=1 / open_gop=0 / weightp=2 / keyint=240 / keyint_min=23 / scenecut=40 / intra_refresh=0 / rc_lookahead=60 / rc=crf / mbtree=0 / crf=17.0 / qcomp=0.60 / qpmin=0 / qpmax=69 / qpstep=4 / vbv_maxrate=62500 / vbv_bufsize=78125 / crf_max=0.0 / nal_hrd=none / filler=0 / ip_ratio=1.30 / pb_ratio=1.20 / aq=2:0.80
    Язык : French
    Default : Да
    Forced : Да
    Аудио #1
    Идентификатор : 2
    Формат : DTS
    Формат/Информация : Digital Theater Systems
    Режим : 16
    Параметр Endianness формата : Big
    Идентификатор кодека : A_DTS
    Продолжительность : 1 ч. 55 м.
    Вид битрейта : Постоянный
    Битрейт : 1509 Кбит/сек
    Каналы : 6 каналов
    Расположение каналов : Front: L C R, Side: L R, LFE
    Частота : 48,0 КГц
    Частота кадров : 93,750 кадра/сек (512 spf)
    Битовая глубина : 16 бит
    Метод сжатия : С потерями
    Размер потока : 1,21 Гбайт (11%)
    Заголовок : AVO (Алексеев) (DTS 5.1 1509 kbps)
    Язык : Russian
    Default : Да
    Forced : Да
    Аудио #2
    Идентификатор : 3
    Формат : DTS
    Формат/Информация : Digital Theater Systems
    Режим : 16
    Параметр Endianness формата : Big
    Идентификатор кодека : A_DTS
    Продолжительность : 1 ч. 55 м.
    Вид битрейта : Постоянный
    Битрейт : 1509 Кбит/сек
    Каналы : 6 каналов
    Расположение каналов : Front: L C R, Side: L R, LFE
    Частота : 48,0 КГц
    Частота кадров : 93,750 кадра/сек (512 spf)
    Битовая глубина : 16 бит
    Метод сжатия : С потерями
    Размер потока : 1,21 Гбайт (11%)
    Заголовок : DTS 5.1 1509 kbps
    Язык : French
    Default : Нет
    Forced : Нет
    Текст
    Идентификатор : 4
    Формат : UTF-8
    Идентификатор кодека : S_TEXT/UTF8
    Идентификатор кодека/Информация : UTF-8 Plain Text
    Продолжительность : 1 ч. 52 м.
    Битрейт : 30 бит/сек
    Count of elements : 878
    Размер потока : 25,1 Кбайт (0%)
    Язык : French
    Default : Нет
    Forced : Нет
    Меню
    00:00:00.000 : fr:00:00:00.000
    00:08:22.250 : fr:00:08:22.250
    00:19:05.792 : fr:00:19:05.792
    00:28:21.333 : fr:00:28:21.333
    00:39:43.333 : fr:00:39:43.333
    00:43:58.167 : fr:00:43:58.167
    00:52:56.667 : fr:00:52:56.667
    01:03:54.542 : fr:01:03:54.542
    01:12:05.333 : fr:01:12:05.333
    01:21:44.875 : fr:01:21:44.875
    01:33:04.458 : fr:01:33:04.458
    01:41:05.917 : fr:01:41:05.917

    Награды

    Награды:
    - 2016. Норвежский МКФ (Norwegian International Film Festival): Премия Андреас (Анн Фонтэн),
    - 2016. Международный кинофестиваль в Провинстауне (Provincetown International Film Festival, США): Лучший художественный фильм (Анн Фонтэн)
    Номинации:
    - 2016. Ие­ру­са­лимс­кий МКФ (Jerusalem Film Festival, Израиль): Премия "Дух Свободы" (Анн Фонтэн),
    - 2016. Меж­ду­на­род­ный ки­но­фес­ти­валь в Си­эт­ле (Seattle International Film Festival, США): Лучший режиссёр (Анн Фонтэн), Лучшая актриса (Лу де Лааж)

    Скриншот c названием фильма

    Скриншоты

    Скачать .torrent

    Скачать торрент-файл бесплатно и на максимальной скорости!

    Как скачивать? · Что такое торрент? · Рейтинг и ограничения

    !ВНИМАНИЕ!
    Сайт не распространяет и не хранит электронные версии произведений, а занимается лишь лишь предоставлением доступа к создаваемому пользователями каталогу ссылок на торрент-файлы, которые содержат только списки хеш-сумм, убедительная просьба с жалобами обращаться напрямую к пользователю. Файлы для обмена на трекере предоставлены пользователями сайта, и администрация не несёт ответственности за их содержание. Просьба не заливать файлы, защищенные авторскими правами, а также файлы нелегального содержания!


    _________________
    [Профиль] [ЛС]
    Показать сообщения:    
    Ответить на тему

    Текущее время: Сегодня, в 16:28

    Часовой пояс: GMT + 2



    Вы не можете начинать темы
    Вы не можете отвечать на сообщения
    Вы не можете редактировать свои сообщения
    Вы не можете удалять свои сообщения
    Вы не можете голосовать в опросах
    Вы не можете прикреплять файлы к сообщениям
    Вы не можете скачивать файлы