BitTorrentTracker PerecTracker.org
BitTorrentTracker PerecTracker.org
    
Регистрация  ·  Вход
 
 · 
Забыли пароль?

  • Лотте и тайна лунного камня / Lotte ja kuukivi saladus (Яанно Пылдма / Janno Põldma, Хейки Эрнитс / Heiki Ernits) [2011, Эстония, Латвия, мультфильм, семейный, детский, сказка, приключения, HDTVRip] Dub + Rus Sub + original Est

    Ответить на тему
     
    Автор Сообщение

    Flirldrerve

    Создавать темы 23-Сен-2016 16:10

           

    [Цитировать]

    Лотте и тайна лунного камня / Lotte ja kuukivi saladus
    Страна: Эстония, Латвия
    Жанр: мультфильм, семейный, детский, сказка, приключения
    Продолжительность: 01:12:49
    Год выпуска: 2011
    Перевод: Профессиональный (дублированный)
    Русские субтитры: есть

    Режиссёр: Яанно Пылдма / Janno Põldma, Хейки Эрнитс / Heiki Ernits
    Роли озвучивали: Алина Кармазина, Эдуард Томан, Лембит Ульфсак, Мария Клёнская, Николай Бентслер, Александр Соловьёв, Александр Окунев, Ану Ламп, Сергей Черкасов, Сергей Фурманюк, Александр Ивашкевич, Екатерина Кордас, Олег Рогачёв, Мелания Бреганова, Арти Розенберг, Лев Соловьёв и Полина Веселина
    Описание: Третий полнометражный эстонский мультфильм о приключениях весёлой собачки Лотте и её друзей, созданный эстонскими аниматорами Яанно Пылдма и Хейки Эрнитсом.
    Как-то раз под покровом ночи в деревню Изобретателей пробрались двое неизвестных, которых интересовал чемодан пса-путешественника Клауса. Собачка Лотте застигла незнакомцев, которые в испуге кинули жёлтый камень, взятый из чемодана Клауса, и убежали. Лотте выясняет, что это не какой-то простой камень, а необыкновенный - с серьёзным механизмом внутри. Оказывается, причиной прибытия непрошеных гостей являются их поиски трёх волшебных камней, один из которых Клаус привёз с собой из своей последней экспедиции. Клаус и Лотте принимают решение отправиться в путешествие, чтобы раскрыть тайну Лунного камня и помочь неким гостям с Луны вернуться домой...

    Качество: HDTVRip
    Формат: AVI
    Видео: 704x400 (1.76:1), 25 fps, XviD build 73 ~2292 kbps avg, 0.33 bit/pixel
    Аудио: 48 kHz, AC3 Dolby Digital, 2/0 (L,R) ch, ~192 kbps - дубляж
    Аудио: 48 kHz, AC3 Dolby Digital, 2/0 (L,R) ch, ~192 kbps - оригинал
    Субтитры: русские

    Подробные технические данные

    ОбщееПолное имя : H:\Lotte.ja.kuukivi.saladus.2011_[1.37]_[teko]\Lotte.ja.kuukivi.saladus.2011_[1.37].aviФормат : AVIФормат/Информация : Audio Video InterleaveРазмер файла : 1,37 ГбайтПродолжительность : 1 ч. 12 м.Общий поток : 2692 Кбит/секПрограмма кодирования : VirtualDubMod 1.5.10.3 | www.virtualdub-fr.org || (build 2550/release)Библиотека кодирования : VirtualDubMod build 2550/release
    ВидеоИдентификатор : 0Формат : MPEG-4 VisualПрофиль формата : Advanced Simple@L5Параметр BVOP формата : 1Параметр QPel формата : НетПараметр GMC формата : Без точки переходаПараметр матрицы формата : ВыборочнаяИдентификатор кодека : XVIDИдентификатор кодека/Подсказка : XviDПродолжительность : 1 ч. 12 м.Битрейт : 2294 Кбит/секШирина : 704 пикселяВысота : 400 пикселейСоотношение сторон : 16:9Частота кадров : 25,000 кадров/секЦветовое пространство : YUVСубдискретизация насыщенности : 4:2:0Битовая глубина : 8 битТип развёртки : ПрогрессивнаяМетод сжатия : С потерямиБит/(Пиксели*Кадры) : 0.326Размер потока : 1,17 Гбайт (85%)Библиотека кодирования : XviD 73
    Аудио #1Идентификатор : 1Формат : AC-3Формат/Информация : Audio Coding 3Расширение режима : CM (complete main)Параметр Endianness формата : BigИдентификатор кодека : 2000Продолжительность : 1 ч. 12 м.Вид битрейта : ПостоянныйБитрейт : 192 Кбит/секКаналы : 2 каналаРасположение каналов : Front: L RЧастота : 48,0 КГцБитовая глубина : 16 битМетод сжатия : С потерямиРазмер потока : 100,0 Мбайт (7%)Выравнивание : Разделение по промежуткамПродолжительность промежутка : 40 мс. (1,00 видеокадр)Время предзагрузки промежутка : 500 мс.
    Аудио #2Идентификатор : 2Формат : AC-3Формат/Информация : Audio Coding 3Расширение режима : CM (complete main)Параметр Endianness формата : BigИдентификатор кодека : 2000Продолжительность : 1 ч. 12 м.Вид битрейта : ПостоянныйБитрейт : 192 Кбит/секКаналы : 2 каналаРасположение каналов : Front: L RЧастота : 48,0 КГцБитовая глубина : 16 битМетод сжатия : С потерямиРазмер потока : 100 Мбайт (7%)Выравнивание : Разделение по промежуткамПродолжительность промежутка : 40 мс. (1,00 видеокадр)Время предзагрузки промежутка : 500 мс.

    Скриншоты

    Релиз группы:

    -
    -
    Скачать .torrent

    Скачать торрент-файл бесплатно и на максимальной скорости!

    Как скачивать? · Что такое торрент? · Рейтинг и ограничения

    !ВНИМАНИЕ!
    Сайт не распространяет и не хранит электронные версии произведений, а занимается лишь лишь предоставлением доступа к создаваемому пользователями каталогу ссылок на торрент-файлы, которые содержат только списки хеш-сумм, убедительная просьба с жалобами обращаться напрямую к пользователю. Файлы для обмена на трекере предоставлены пользователями сайта, и администрация не несёт ответственности за их содержание. Просьба не заливать файлы, защищенные авторскими правами, а также файлы нелегального содержания!


    _________________
    [Профиль] [ЛС]
    Показать сообщения:    
    Ответить на тему

    Текущее время: Сегодня, в 18:19

    Часовой пояс: GMT + 2



    Вы не можете начинать темы
    Вы не можете отвечать на сообщения
    Вы не можете редактировать свои сообщения
    Вы не можете удалять свои сообщения
    Вы не можете голосовать в опросах
    Вы не можете прикреплять файлы к сообщениям
    Вы не можете скачивать файлы