BitTorrentTracker PerecTracker.org
BitTorrentTracker PerecTracker.org
    
Регистрация  ·  Вход
 
 · 
Забыли пароль?

  • Любой ценой / Hell or High Water (Дэвид Маккензи / David Mackenzie) [2016, США, Драма, криминал, WEB-DLRip] Dub (iTunes)

    Ответить на тему
     
    Автор Сообщение

    rechyn

    Создавать темы 23-Сен-2016 16:10

           

    [Цитировать]

    Любой ценой / Hell or High Water
    «Справедливость - это не преступление»-Год выхода: 2016
    Выпущено: США / Sidney Kimmel Entertainment
    Жанр: боевик, комедия, криминал
    Продолжительность: 01:37:43
    Перевод: Профессиональный (полное дублирование)
    Субтитры: нет-Режиссер:
    Дэвид Маккензи / David Mackenzie-В ролях:
    Джефф Бриджес (Marcus Hamilton), Крис Пайн (Toby Howard), Бен Фостер (Tanner Howard), Джил Бирмингем (Alberto Parker), Дейл Дикки (Elsie), Уильям Стерчи (Mr. Clauson), Бак Тейлор (Old Man), Кристин Берг (Olney Teller), Кит Мэривезер (Rancher), Жакмо Буззел (Archer City Deputy), Кэти Миксон (Jenny Ann)-О фильме:
    Два брата-лузера решают наведаться в хранилища пары-тройки банков, которые много лет безбожно обкрадывают своих должников. Расследование дерзких ограблений с грубым почерком увенчает карьеру шерифа Маркуса. Но куда выведет это нехитрое дело?-Релиз групп
    | | IMDB | КиноПоиск | Сэмпл |-Качество: WEB-DLRip [Hell.or.High.Water.2016.1080p.WEB-DL.Rus.HDCLUB]
    Формат: AVI
    Видео: 720x304 (2.37:1), 25 fps, XviD build 67 ~1740 kbps avg, 0.32 bit/pixel
    Аудио: 48 kHz, AC3 Dolby Digital, 3/2 (L,C,R,l,r) + LFE ch, ~384 kbps - iTunes Russia-

    Скриншоты

    -

    MediaInfo

    Общее
    Полное имя                               : D:\Luboi_cenoi_2016_WEB-DLRip_by_Dalemake.avi
    Формат                                   : AVI
    Формат/Информация                        : Audio Video Interleave
    Размер файла                             : 1,46 Гбайт
    Продолжительность                        : 1 ч. 37 м.
    Общий поток                              : 2135 Кбит/сек
    Программа кодирования                    : VirtualDubMod 1.5.10.3 | www.virtualdub-fr.org || (build 2550/release)
    Библиотека кодирования                   : VirtualDubMod build 2550/release
    Видео
    Идентификатор                            : 0
    Формат                                   : MPEG-4 Visual
    Профиль формата                          : Advanced Simple@L5
    Параметр BVOP формата                    : 1
    Параметр QPel формата                    : Нет
    Параметр GMC формата                     : Без точки перехода
    Параметр матрицы формата                 : Выборочная
    Идентификатор кодека                     : XVID
    Идентификатор кодека/Подсказка           : XviD
    Продолжительность                        : 1 ч. 37 м.
    Битрейт                                  : 1741 Кбит/сек
    Ширина                                   : 720 пикселей
    Высота                                   : 304 пикселя
    Соотношение сторон                       : 2,35:1
    Частота кадров                           : 25,000 кадров/сек
    Цветовое пространство                    : YUV
    Субдискретизация насыщенности            : 4:2:0
    Битовая глубина                          : 8 бит
    Тип развёртки                            : Прогрессивная
    Метод сжатия                             : С потерями
    Бит/(Пиксели*Кадры)                      : 0.318
    Размер потока                            : 1,19 Гбайт (82%)
    Библиотека кодирования                   : XviD 67
    Аудио
    Идентификатор                            : 1
    Формат                                   : AC-3
    Формат/Информация                        : Audio Coding 3
    Расширение режима                        : CM (complete main)
    Параметр Endianness формата              : Big
    Идентификатор кодека                     : 2000
    Продолжительность                        : 1 ч. 37 м.
    Вид битрейта                             : Постоянный
    Битрейт                                  : 384 Кбит/сек
    Каналы                                   : 6 каналов
    Расположение каналов                     : Front: L C R, Side: L R, LFE
    Частота                                  : 48,0 КГц
    Битовая глубина                          : 16 бит
    Метод сжатия                             : С потерями
    Размер потока                            : 268 Мбайт (18%)
    Выравнивание                             : Разделение по промежуткам
    Продолжительность промежутка             : 40  мс. (1,00 видеокадр)
    Время предзагрузки промежутка            : 500  мс.
    -
    Скачать .torrent

    Скачать торрент-файл бесплатно и на максимальной скорости!

    Как скачивать? · Что такое торрент? · Рейтинг и ограничения

    !ВНИМАНИЕ!
    Сайт не распространяет и не хранит электронные версии произведений, а занимается лишь лишь предоставлением доступа к создаваемому пользователями каталогу ссылок на торрент-файлы, которые содержат только списки хеш-сумм, убедительная просьба с жалобами обращаться напрямую к пользователю. Файлы для обмена на трекере предоставлены пользователями сайта, и администрация не несёт ответственности за их содержание. Просьба не заливать файлы, защищенные авторскими правами, а также файлы нелегального содержания!


    _________________
    [Профиль] [ЛС]
    Показать сообщения:    
    Ответить на тему

    Текущее время: Сегодня, в 22:26

    Часовой пояс: GMT + 2



    Вы не можете начинать темы
    Вы не можете отвечать на сообщения
    Вы не можете редактировать свои сообщения
    Вы не можете удалять свои сообщения
    Вы не можете голосовать в опросах
    Вы не можете прикреплять файлы к сообщениям
    Вы не можете скачивать файлы