BitTorrentTracker PerecTracker.org
BitTorrentTracker PerecTracker.org
    
Регистрация  ·  Вход
 
 · 
Забыли пароль?

  • Невероятный Блинки Билл / Blinky Bill the Movie (Дин Тейлор / Deane Taylor, Ноэль Клири / Noel Cleary, Алекс Стадерманн / Alexs Staderman) [2015, США, Австралия, мультфильм, приключения, семейный, HDRip] Dub (Мосфильм-мастер) + Sub Eng + original Eng

    Ответить на тему
     
    Автор Сообщение

    Flirldrerve

    Создавать темы 23-Сен-2016 12:00

           

    [Цитировать]

    Невероятный Блинки Билл / Blinky Bill the Movie
    Страна: США, Австралия
    Жанр: мультфильм, приключения, семейный
    Продолжительность: 01:30:57
    Год выпуска: 2015
    Перевод: Профессиональный (дублированный) - Мосфильм-мастер
    Русские субтитры: нет

    Режиссёр: Дин Тейлор / Deane Taylor, Ноэль Клири / Noel Cleary, Алекс Стадерманн / Alexs Stadermann, Алекс Вейт / Alex Weight
    Роли озвучивали: Тони Коллетт, Руфус Сьюэлл, Робин МакЛиви, Дэвид Уэнэм, Райан Квантен, Ричард Роксбург, Бэрри Хамфриз, Дебора Мэйлман, Бэрри Отто, Фин Эдквист
    Описание: Блинки Билл — очаровательный и озорной медвежонок-коала, который никого не боится и никогда не сдается. Вместе с друзьями — веселой ящерицей и добрыми страусами Эму — ему надо преодолеть миллион опасностей в диких джунглях, чтобы найти пропавшего отца.
    Новые герои, яркий красочный мир экзотического континента и настоящее большое приключение!

    Качество: HDRip
    Формат: AVI
    Видео: 720x384 (1.88:1), 24 fps, XviD build 73 ~1834 kbps avg, 0.28 bit/pixel
    Аудио: 48 kHz, AC3 Dolby Digital, 3/2 (L,C,R,l,r) + LFE ch, ~448 kbps - дубляж
    Аудио: 48 kHz, AC3 Dolby Digital, 3/2 (L,C,R,l,r) + LFE ch, ~448 kbps - оригинал (отдельно)
    Субтитры: английские, английские для слабослышащих

    Подробные технические данные

    ОбщееПолное имя : H:\Blinky.Bill.The.Movie.2015.hdrip_[1.46]_[teko]\Blinky.Bill.The.Movie.2015.720p.BDRip-rutracker.aviФормат : AVIФормат/Информация : Audio Video InterleaveРазмер файла : 1,46 ГбайтПродолжительность : 1 ч. 30 м.Общий поток : 2292 Кбит/секПрограмма кодирования : VirtualDubMod 1.5.10.3 | www.virtualdub-fr.org || (build 2550/release)Библиотека кодирования : VirtualDubMod build 2550/release
    ВидеоИдентификатор : 0Формат : MPEG-4 VisualПрофиль формата : Advanced Simple@L5Параметр BVOP формата : 2Параметр QPel формата : НетПараметр GMC формата : Без точки переходаПараметр матрицы формата : ВыборочнаяИдентификатор кодека : XVIDИдентификатор кодека/Подсказка : XviDПродолжительность : 1 ч. 30 м.Битрейт : 1835 Кбит/секШирина : 720 пикселейВысота : 384 пикселяСоотношение сторон : 1,85:1Частота кадров : 24,000 кадра/секЦветовое пространство : YUVСубдискретизация насыщенности : 4:2:0Битовая глубина : 8 битТип развёртки : ПрогрессивнаяМетод сжатия : С потерямиБит/(Пиксели*Кадры) : 0.277Размер потока : 1,17 Гбайт (80%)Библиотека кодирования : XviD 73
    АудиоИдентификатор : 1Формат : AC-3Формат/Информация : Audio Coding 3Расширение режима : CM (complete main)Параметр Endianness формата : BigИдентификатор кодека : 2000Продолжительность : 1 ч. 30 м.Вид битрейта : ПостоянныйБитрейт : 448 Кбит/секКаналы : 6 каналовРасположение каналов : Front: L C R, Side: L R, LFEЧастота : 48,0 КГцБитовая глубина : 16 битМетод сжатия : С потерямиРазмер потока : 291 Мбайт (20%)Выравнивание : Разделение по промежуткамПродолжительность промежутка : 42 мс. (1,00 видеокадр)Время предзагрузки промежутка : 500 мс.

    Скриншоты

    Релиз группы:

    -
    -
    Скачать .torrent

    Скачать торрент-файл бесплатно и на максимальной скорости!

    Как скачивать? · Что такое торрент? · Рейтинг и ограничения

    !ВНИМАНИЕ!
    Сайт не распространяет и не хранит электронные версии произведений, а занимается лишь лишь предоставлением доступа к создаваемому пользователями каталогу ссылок на торрент-файлы, которые содержат только списки хеш-сумм, убедительная просьба с жалобами обращаться напрямую к пользователю. Файлы для обмена на трекере предоставлены пользователями сайта, и администрация не несёт ответственности за их содержание. Просьба не заливать файлы, защищенные авторскими правами, а также файлы нелегального содержания!


    _________________
    [Профиль] [ЛС]
    Показать сообщения:    
    Ответить на тему

    Текущее время: Сегодня, в 23:58

    Часовой пояс: GMT + 2



    Вы не можете начинать темы
    Вы не можете отвечать на сообщения
    Вы не можете редактировать свои сообщения
    Вы не можете удалять свои сообщения
    Вы не можете голосовать в опросах
    Вы не можете прикреплять файлы к сообщениям
    Вы не можете скачивать файлы