BitTorrentTracker PerecTracker.org
BitTorrentTracker PerecTracker.org
    
Регистрация  ·  Вход
 
 · 
Забыли пароль?

  • Тарзан. Легенда / The Legend of Tarzan (Дэвид Йэтс / David Yates) [2016, США, боевик, мелодрама, приключения, WEB-DLRip-AVC] Dub

    Ответить на тему
     
    Автор Сообщение

    rechyn

    Создавать темы 23-Сен-2016 12:00

           

    [Цитировать]

    Тарзан. Легенда / The Legend of Tarzan«Human. Nature»-Страна: США, Великобритания, Канада
    Жанр: боевик, мелодрама, приключения
    Год выпуска: 2016
    Продолжительность: 01:49:56
    Перевод: Профессиональный (дублированный) (iTunes)
    Оригинальная аудиодорожка: нет
    Субтитры: русские (форс.)
    Навигация по главам: есть
    Режиссер: Дэвид Йэтс / David Yates
    В ролях: Александр Скарсгард (John Clayton / Tarzan), Марго Робби (Jane Clayton), Сэмюэл Л. Джексон (George Washington Williams), Кристоф Вальц (Leon Rom), Джимон Хонсу (Chief Mbonga), Джим Бродбент (Prime Minister), Каспер Крамп (Major Kerckhover), Хэдли Фрайзер (Tarzan's Father), Женевьев О’Рейли (Tarzan's Mother), Саймон Расселл Бил (Mr. Frum), Рори Дж. Сапер (Young Tarzan (18 Years)), Кристиан Стивенс (Young Tarzan (5 Years))
    Описание: Приспособившийся к жизни в Лондоне Тарзан возвращается в свой бывший дом, в джунгли, чтобы разобраться в том, что происходит в лагере горнодобывающей компании.- -Качество: WEB-DLRip-AVC (исходник - The.Legend.of.Tarzan.2016.1080p.WEB-DL.DD5.1.H264-FGT)
    Формат видео: MKV
    Видео: x264, 1024x426 (2.40:1), 23,976 fps, ~1515 kbps, 0,145 bit/pixel
    Аудио: 48 kHz, AC3 Dolby Digital, 3/2 (L,C,R,l,r) + LFE ch, ~384 kbps
    Формат субтитров: softsub (SRT)-MediaInfo | x264 log
    Format : Matroska
    Format version : Version 4 / Version 2
    File size : 1.46 GiB
    Duration : 1 h 49 min
    Overall bit rate : 1 900 kb/s
    Movie name : Тарзан. Легенда / The Legend of Tarzan (2016) :: AFM ::
    Encoded date : UTC 2016-09-21 06:28:18
    Writing application : mkvmerge v8.3.0 ('Over the Horizon') 32bit
    Writing library : libebml v1.3.1 + libmatroska v1.4.2
    Video
    ID : 1
    Format : AVC
    Format/Info : Advanced Video Codec
    Format profile : High@L4.1
    Format settings, CABAC : Yes
    Format settings, ReFrames : 11 frames
    Codec ID : V_MPEG4/ISO/AVC
    Duration : 1 h 49 min
    Bit rate : 1 515 kb/s
    Width : 1 024 pixels
    Height : 426 pixels
    Display aspect ratio : 2.40:1
    Frame rate mode : Constant
    Frame rate : 23.976 (24000/1001) FPS
    Color space : YUV
    Chroma subsampling : 4:2:0
    Bit depth : 8 bits
    Scan type : Progressive
    Bits/(Pixel*Frame) : 0.145
    Stream size : 1.14 GiB (78%)
    Title : WEB_DLRip by AFM
    Writing library : x264 core 148 r2705+54 9f484c1 t_mod_Custom [8-bit@all X86_64]
    Encoding settings : cabac=1 / ref=11 / deblock=1:-2:-1 / analyse=0x3:0x113 / me=umh / subme=10 / psy=1 / fade_compensate=0.00 / psy_rd=1.00:0.00 / mixed_ref=1 / me_range=32 / chroma_me=1 / trellis=2 / 8x8dct=1 / cqm=0 / deadzone=21,11 / fast_pskip=0 / chroma_qp_offset=-2 / threads=6 / lookahead_threads=1 / sliced_threads=0 / nr=0 / decimate=0 / interlaced=0 / bluray_compat=0 / constrained_intra=0 / fgo=0 / bframes=11 / b_pyramid=2 / b_adapt=2 / b_bias=0 / direct=3 / weightb=1 / open_gop=0 / weightp=2 / keyint=250 / keyint_min=23 / scenecut=40 / intra_refresh=0 / rc_lookahead=40 / rc=2pass / mbtree=0 / bitrate=1515 / ratetol=1.0 / qcomp=0.65 / qpmin=0:0:0 / qpmax=69:69:69 / qpstep=4 / cplxblur=20.0 / qblur=0.5 / vbv_maxrate=50000 / vbv_bufsize=62500 / nal_hrd=none / filler=0 / ip_ratio=1.35 / pb_ratio=1.30 / aq=3:0.80 / aq-sensitivity=10.00 / aq-factor=1.00:1.00:1.00 / aq2=0 / aq3=0
    Language : English
    Default : Yes
    Forced : No
    Audio
    ID : 2
    Format : AC-3
    Format/Info : Audio Coding 3
    Mode extension : CM (complete main)
    Format settings, Endianness : Big
    Codec ID : A_AC3
    Duration : 1 h 49 min
    Bit rate mode : Constant
    Bit rate : 384 kb/s
    Channel(s) : 6 channels
    Channel positions : Front: L C R, Side: L R, LFE
    Sampling rate : 48.0 kHz
    Frame rate : 31.250 FPS (1536 spf)
    Compression mode : Lossy
    Stream size : 302 MiB (20%)
    Title : Dub, AC3 5.1 ~384 kbps
    Language : Russian
    Default : Yes
    Forced : No
    Text
    ID : 3
    Format : UTF-8
    Codec ID : S_TEXT/UTF8
    Codec ID/Info : UTF-8 Plain Text
    Title : forced
    Language : Russian
    Default : Yes
    Forced : No
    Menu
    00:00:00.000 : en:1
    00:10:56.000 : en:2
    00:20:47.000 : en:3
    00:28:26.000 : en:4
    00:40:49.000 : en:5
    00:51:03.000 : en:6
    01:01:15.000 : en:7
    01:10:22.000 : en:8
    01:20:58.000 : en:9
    01:29:09.000 : en:10
    01:42:05.000 : en:11

    x264

    x264 [info]: frame I:1178 Avg QP:16.12 size: 46920
    x264 [info]: frame P:44192 Avg QP:19.22 size: 15308
    x264 [info]: frame B:112794 Avg QP:20.72 size: 4582
    x264 [info]: consecutive B-frames: 4.0% 6.2% 9.2% 60.5% 7.3% 9.3% 1.0% 0.7% 0.2% 0.2% 0.2% 1.1%
    x264 [info]: mb I I16..4: 7.1% 73.2% 19.7%
    x264 [info]: mb P I16..4: 1.8% 11.9% 1.7% P16..4: 39.9% 25.1% 11.7% 0.0% 0.0% skip: 7.9%
    x264 [info]: mb B I16..4: 0.1% 1.1% 0.2% B16..8: 36.4% 10.2% 2.5% direct: 4.8% skip:44.7% L0:39.6% L1:46.6% BI:13.7%
    x264 [info]: 8x8 transform intra:77.0% inter:64.0%
    x264 [info]: direct mvs spatial:93.9% temporal:6.1%
    x264 [info]: coded y,uvDC,uvAC intra: 80.2% 63.4% 27.2% inter: 21.1% 12.4% 4.2%
    x264 [info]: i16 v,h,dc,p: 22% 12% 6% 59%
    x264 [info]: i8 v,h,dc,ddl,ddr,vr,hd,vl,hu: 11% 10% 6% 8% 13% 13% 14% 12% 14%
    x264 [info]: i4 v,h,dc,ddl,ddr,vr,hd,vl,hu: 12% 8% 4% 9% 15% 14% 15% 11% 13%
    x264 [info]: i8c dc,h,v,p: 38% 30% 19% 14%
    x264 [info]: Weighted P-Frames: Y:5.1% UV:1.6%
    x264 [info]: ref P L0: 53.8% 12.5% 14.8% 5.0% 3.9% 2.7% 2.4% 1.3% 1.3% 1.1% 1.1% 0.1% 0.0%
    x264 [info]: ref B L0: 80.9% 9.2% 3.9% 1.8% 1.3% 1.0% 0.8% 0.5% 0.4% 0.2%
    x264 [info]: ref B L1: 96.5% 3.5%
    x264 [info]: kb/s:1514.19

    Скриншоты

    с названием

    Скачать .torrent

    Скачать торрент-файл бесплатно и на максимальной скорости!

    Как скачивать? · Что такое торрент? · Рейтинг и ограничения

    !ВНИМАНИЕ!
    Сайт не распространяет и не хранит электронные версии произведений, а занимается лишь лишь предоставлением доступа к создаваемому пользователями каталогу ссылок на торрент-файлы, которые содержат только списки хеш-сумм, убедительная просьба с жалобами обращаться напрямую к пользователю. Файлы для обмена на трекере предоставлены пользователями сайта, и администрация не несёт ответственности за их содержание. Просьба не заливать файлы, защищенные авторскими правами, а также файлы нелегального содержания!


    _________________
    [Профиль] [ЛС]
    Показать сообщения:    
    Ответить на тему

    Текущее время: Сегодня, в 18:52

    Часовой пояс: GMT + 2



    Вы не можете начинать темы
    Вы не можете отвечать на сообщения
    Вы не можете редактировать свои сообщения
    Вы не можете удалять свои сообщения
    Вы не можете голосовать в опросах
    Вы не можете прикреплять файлы к сообщениям
    Вы не можете скачивать файлы