BitTorrentTracker PerecTracker.org
BitTorrentTracker PerecTracker.org
    
Регистрация  ·  Вход
 
 · 
Забыли пароль?

  • Охотники за привидениями / Ghostbusters (Пол Фиг / Paul Feig ) [2016, США, Австралия, Фантастика, фэнтези, боевик, комедия, WEB-DL, HD (720p)] DUB + Original + sub (rus, ukr, eng)

    Ответить на тему
     
    Автор Сообщение

    rechyn

    Создавать темы 23-Сен-2016 07:40

           

    [Цитировать]

    Охотники за привидениями / Ghostbusters
    «All be repeat! On third trouble...»
    4.212 / 10 5.50 / 10
    -Год выпуска: 2016
    Страна: США, Австралия
    Жанр: Фантастика, фэнтези, боевик, комедия
    Продолжительность: 01:56:38
    Перевод: Дублированный (iTunes)
    Оригинальная аудиодорожка: Есть
    Cубтитры: Русские форсированные, Русские, Украинские, Английские
    Режиссёр: Пол Фиг
    Сценарий: Кэти Дипполд, Пол Фиг, Айвен Райтман
    Продюсер: Эми Паскаль, Айвен Райтман, Дэн Эйкройд
    Оператор: Роберт Д. Йоумен
    Композитор: Теодор Шапиро
    Художник: Джеффресон Сэйдж, Одра Эйвери, Лорин Флемминг
    Монтаж: Меллисса Брезертон, Брент Уайт
    В ролях: Мелисса МакКарти, Кристен Уиг, Кейт МакКиннон, Лесли Джонс, Крис Хемсворт, Сесили Стронг, Энди Гарсиа, Нил Кэйси, Чарльз Дэнс, Майкл Кеннет Уильямс
    Бюджет: $144 000 000
    Сборы в США: $127 264 100
    Сборы в мире: + $100 388 349 = $227 652 449
    Сборы в России: $5 037 953
    Мировая премьера: 9 июля 2016
    Премьера (РФ): 28 июля 2016, «WDSSPR»
    Описание: Тридцать лет назад охотники за привидениями спасли Нью-Йорк от нашествия призраков, но теперь городу вновь угрожает опасность. Былые герои не могут стать на его защиту, но находятся и другие отважные люди, всю свою жизнь посвятившие изучению паранормальных явлений. Эбби Йейтс объединяется с Эрин Гилберт, пожалуй лучшим специалистом в квантовой физике, и вместе они собирают команду новых охотников за привидениями, в которую принимают отличного инженера Джиллиан Хольцман, сотрудницу метрополитена Пэтти Толан, знающую город как свои пять пальцев, и секретаря — настоящего красавчика Кэвина. Вместе они начинают борьбу с нечистой силой, терроризирующей мегаполис…-Качество исходника: WEB-DL 720p (NNMClub)
    Качество: WEB-DL
    Тип: HD (720p)
    Контейнер: M4V
    Видео: H.264, 1280x528, 2.40:1, 4 004 Kbps, 23.976 fps
    Аудио 1: Русский/Дублированный (iTunes), AAC / 2.0 / 160 Kbps / 48.0 KHz
    Аудио 2: Английский/Оригинальная дорожка , AAC / 2.0 / 160 Kbps / 48.0 KHz
    Аудио 3: Украинский/Дублированный (iTunes), AAC / 2.0 / 160 Kbps / 48.0 KHz
    Аудио 4: Русский/Дублированный (iTunes), AC-3 / 5.1 / 384 Kbps / 48.0 KHz
    Субтитры 1: Русские форсированные
    Субтитры 2: Русские полные
    Субтитры 3: Украинские полные
    Субтитры 4: Английские полные
    -

    iTunes Meta Tags

    Sort Name: Охотники за привидениями
    XID: Apple:vendor_id:2016-425673
    contentID: 1121835280
    Screenwriters: Кэти Дипполд, Пол Фиг, Айвен Райтман
    Producers: Эми Паскаль, Айвен Райтман, Дэн Эйкройд
    Director: Пол Фиг
    Cast: Мелисса МакКарти, Кристен Уиг, Кейт МакКиннон, Лесли Джонс, Крис Хемсворт, Сесили Стронг, Энди Гарсиа, Нил Кэйси, Чарльз Дэнс, Майкл Кеннет Уильямс, Марианна Шульц, Ирина Киреева, Татьяна Шитова, Инна Королёва, Иван Жарков
    Studio: Columbia Pictures
    Rating: 134
    Long Description: Тридцать лет назад охотники за привидениями спасли Нью-Йорк от нашествия призраков, но теперь городу вновь угрожает опасность. Былые герои не могут стать на его защиту, но находятся и другие отважные люди, всю свою жизнь посвятившие изучению паранормальных явлений. Эбби Йейтс объединяется с Эрин Гилберт, пожалуй лучшим специалистом в квантовой физике, и вместе они собирают команду новых охотников за привидениями, в которую принимают отличного инженера Джиллиан Хольцман, сотрудницу метрополитена Пэтти Толан, знающую город как свои пять пальцев, и секретаря - настоящего красавчика Кэвина. Вместе они начинают борьбу с нечистой силой, терроризирующей мегаполис...
    Description: Тридцать лет назад охотники за привидениями спасли Нью-Йорк от нашествия призраков, но теперь городу вновь угрожает опасность. Былые герои не могут стать на его защиту, но находятся и другие отважные люди, всю свою жизнь посвятившие изучению паранормальных явлений.
    Release Date: 2016-07-09T08:00:00Z
    Genre: Научная фантастика и фэнтези
    Artist: Paul Feig
    Name: Охотники за привидениями

    MediaInfo

    General
    Complete name : /Users/imac/HandBrake/Ghostbusters.WEB-DL.720p.m4v
    Format : MPEG-4
    Codec ID : M4V
    File size : 3.97 GiB
    Duration : 1h 56mn
    Overall bit rate mode : Variable
    Overall bit rate : 4 871 Kbps
    Movie name : Охотники за привидениями
    Performer : Paul Feig
    Director : Пол Фиг
    Actor : Мелисса МакКарти / Кристен Уиг / Кейт МакКиннон / Лесли Джонс / Крис Хемсворт / Сесили Стронг / Энди Гарсиа / Нил Кэйси / Чарльз Дэнс / Майкл Кеннет Уильямс / Марианна Шульц / Ирина Киреева / Татьяна Шитова / Инна Королёва / Иван Жарков
    Screenplay by : Кэти Дипполд / Пол Фиг / Айвен Райтман
    Producer : Эми Паскаль / Айвен Райтман / Дэн Эйкройд
    Production studio : Columbia Pictures
    Genre : Научная фантастика и фэнтези
    ContentType : Short Film
    Description : Тридцать лет назад охотники за привидениями спасли Нью-Йорк от нашествия призраков, но теперь городу вновь угрожает опасность. Былые герои не могут стать на его защиту, но находятся и другие отважные люди, всю свою жизнь посвятившие изучению паранормальных явлений.
    Recorded date : UTC 2016-07-09 08:00:00
    Encoded date : UTC 2016-09-22 22:17:59
    Tagged date : UTC 2016-09-22 22:30:29
    Cover : Yes
    Rating : None
    Title/Sort : Охотники за привидениями
    LongDescription : Тридцать лет назад охотники за привидениями спасли Нью-Йорк от нашествия призраков, но теперь городу вновь угрожает опасность. Былые герои не могут стать на его защиту, но находятся и другие отважные люди, всю свою жизнь посвятившие изучению паранормальных явлений. Эбби Йейтс объединяется с Эрин Гилберт, пожалуй лучшим специалистом в квантовой физике, и вместе они собирают команду новых охотников за привидениями, в которую принимают отличного инженера Джиллиан Хольцман, сотрудницу метрополитена Пэтти Толан, знающую город как свои пять пальцев, и секретаря - настоящего красавчика Кэвина. Вместе они начинают борьбу с нечистой силой, терроризирующей мегаполис...
    HDVideo : Yes
    AppleStoreCatalogID : 1121835280
    Vendor : Apple:vendor_id:2016-425673
    ContentRating : ru-movie|12+|200|
    Video #1
    ID : 1
    Format : AVC
    Format/Info : Advanced Video Codec
    Format profile : Main@L3.1
    Format settings, CABAC : No
    Format settings, ReFrames : 2 frames
    Codec ID : avc1
    Codec ID/Info : Advanced Video Coding
    Duration : 1h 56mn
    Bit rate : 4 004 Kbps
    Width : 1 280 pixels
    Height : 528 pixels
    Display aspect ratio : 2.40:1
    Frame rate mode : Variable
    Frame rate : 23.976 fps
    Minimum frame rate : 23.810 fps
    Maximum frame rate : 24.390 fps
    Color space : YUV
    Chroma subsampling : 4:2:0
    Bit depth : 8 bits
    Scan type : Progressive
    Bits/(Pixel*Frame) : 0.247
    Stream size : 3.26 GiB (82%)
    Title : Main Program
    Language : English
    Encoded date : UTC 2016-09-22 22:17:59
    Tagged date : UTC 2016-09-22 22:18:15
    Color range : Limited
    Color primaries : BT.709
    Transfer characteristics : BT.709
    Matrix coefficients : BT.709
    Video #2
    ID : 11
    Format : JPEG
    Codec ID : jpeg
    Duration : 1h 56mn
    Bit rate mode : Variable
    Bit rate : 883 bps
    Width : 640 pixels
    Height : 264 pixels
    Display aspect ratio : 2.40:1
    Frame rate mode : Variable
    Frame rate : 0.002 fps
    Minimum frame rate : 0.001 fps
    Maximum frame rate : 0.004 fps
    Color space : YUV
    Chroma subsampling : 4:2:0
    Bit depth : 8 bits
    Compression mode : Lossy
    Bits/(Pixel*Frame) : 2.613
    Stream size : 862 KiB (0%)
    Title : Chapter Images
    Language : English
    Encoded date : UTC 2016-09-22 22:18:37
    Tagged date : UTC 2016-09-22 22:18:37
    Audio #1
    ID : 2
    Format : AAC
    Format/Info : Advanced Audio Codec
    Format profile : LC
    Codec ID : 40
    Duration : 1h 56mn
    Bit rate mode : Variable
    Bit rate : 157 Kbps
    Maximum bit rate : 257 Kbps
    Channel(s) : 2 channels
    Channel positions : Front: L R
    Sampling rate : 48.0 KHz
    Compression mode : Lossy
    Stream size : 131 MiB (3%)
    Title : Russian Stereo
    Language : Russian
    Encoded date : UTC 2016-09-22 22:17:59
    Tagged date : UTC 2016-09-22 22:18:33
    Audio #2
    ID : 3
    Format : AAC
    Format/Info : Advanced Audio Codec
    Format profile : LC
    Codec ID : 40
    Duration : 1h 56mn
    Bit rate mode : Variable
    Bit rate : 157 Kbps
    Maximum bit rate : 286 Kbps
    Channel(s) : 2 channels
    Channel positions : Front: L R
    Sampling rate : 48.0 KHz
    Compression mode : Lossy
    Stream size : 131 MiB (3%)
    Title : English Stereo
    Language : English
    Encoded date : UTC 2016-09-22 22:17:59
    Tagged date : UTC 2016-09-22 22:18:33
    Audio #3
    ID : 4
    Format : AAC
    Format/Info : Advanced Audio Codec
    Format profile : LC
    Codec ID : 40
    Duration : 1h 56mn
    Bit rate mode : Variable
    Bit rate : 157 Kbps
    Maximum bit rate : 281 Kbps
    Channel(s) : 2 channels
    Channel positions : Front: L R
    Sampling rate : 48.0 KHz
    Compression mode : Lossy
    Stream size : 131 MiB (3%)
    Title : Ukrainian Stereo
    Language : Ukrainian
    Encoded date : UTC 2016-09-22 22:17:59
    Tagged date : UTC 2016-09-22 22:18:33
    Audio #4
    ID : 5
    Format : AC-3
    Format/Info : Audio Coding 3
    Mode extension : CM (complete main)
    Format settings, Endianness : Big
    Codec ID : ac-3
    Duration : 1h 56mn
    Bit rate mode : Constant
    Bit rate : 384 Kbps
    Channel(s) : 6 channels
    Channel positions : Front: L C R, Side: L R, LFE
    Sampling rate : 48.0 KHz
    Bit depth : 16 bits
    Compression mode : Lossy
    Stream size : 320 MiB (8%)
    Title : Russian DD 5.1
    Language : Russian
    Encoded date : UTC 2016-09-22 22:17:59
    Tagged date : UTC 2016-09-22 22:18:33
    Text #1
    ID : 6
    Format : Timed Text
    Muxing mode : sbtl
    Codec ID : tx3g
    Duration : 1h 54mn
    Bit rate mode : Variable
    Bit rate : 2 bps
    Stream size : 1.53 KiB (0%)
    Title : Russian Forced
    Language : Russian
    Encoded date : UTC 2016-09-22 22:17:59
    Tagged date : UTC 2016-09-22 22:18:31
    Text #2
    ID : 7
    Format : Timed Text
    Muxing mode : sbtl
    Codec ID : tx3g
    Duration : 1h 56mn
    Bit rate mode : Variable
    Bit rate : 129 bps
    Stream size : 110 KiB (0%)
    Title : Russian Full-lenth
    Language : Russian
    Encoded date : UTC 2016-09-22 22:17:59
    Tagged date : UTC 2016-09-22 22:18:33
    Text #3
    ID : 8
    Format : Timed Text
    Muxing mode : sbtl
    Codec ID : tx3g
    Duration : 1h 56mn
    Bit rate mode : Variable
    Bit rate : 131 bps
    Stream size : 111 KiB (0%)
    Title : Ukrainian Full-lenth
    Language : Ukrainian
    Encoded date : UTC 2016-09-22 22:17:59
    Tagged date : UTC 2016-09-22 22:18:33
    Text #4
    ID : 9
    Format : Timed Text
    Muxing mode : sbtl
    Codec ID : tx3g
    Duration : 1h 56mn
    Bit rate mode : Variable
    Bit rate : 90 bps
    Stream size : 77.0 KiB (0%)
    Title : English Full-lenth
    Language : English
    Encoded date : UTC 2016-09-22 22:17:59
    Tagged date : UTC 2016-09-22 22:18:33
    Menu #1
    00:00:00.000 : 1
    00:08:23.294 : 2
    00:15:20.753 : 3
    00:19:58.238 : 4
    00:25:26.899 : 5
    00:33:54.948 : 6
    00:39:03.131 : 7
    00:45:23.302 : 8
    00:51:50.105 : 9
    00:56:32.345 : 10
    01:01:51.414 : 11
    01:07:03.100 : 12
    01:15:42.285 : 13
    01:23:29.335 : 14
    01:32:40.636 : 15
    01:42:48.577 : 16
    Menu #2
    ID : 10
    Codec ID : text
    Duration : 1h 56mn
    Language : English
    Encoded date : UTC 2016-09-22 22:18:33
    Tagged date : UTC 2016-09-22 22:18:33
    00:00:00.000 : 1
    00:08:23.294 : 2
    00:15:20.753 : 3
    00:19:58.238 : 4
    00:25:26.899 : 5
    00:33:54.948 : 6
    00:39:03.131 : 7
    00:45:23.302 : 8
    00:51:50.105 : 9
    00:56:32.345 : 10
    01:01:51.414 : 11
    01:07:03.100 : 12
    01:15:42.285 : 13
    01:23:29.335 : 14
    01:32:40.636 : 15
    01:42:48.577 : 16
    Bit rate mode : VBR

    Скриншоты


    -

    Релиз подготовлен для просмотра на Apple TV, iPad, iPhone, iPod Touch.
    Для просмотра данного релиза на компьютере с ОС Windows рекомендуется использовать VLC media player
    Скачать .torrent

    Скачать торрент-файл бесплатно и на максимальной скорости!

    Как скачивать? · Что такое торрент? · Рейтинг и ограничения

    !ВНИМАНИЕ!
    Сайт не распространяет и не хранит электронные версии произведений, а занимается лишь лишь предоставлением доступа к создаваемому пользователями каталогу ссылок на торрент-файлы, которые содержат только списки хеш-сумм, убедительная просьба с жалобами обращаться напрямую к пользователю. Файлы для обмена на трекере предоставлены пользователями сайта, и администрация не несёт ответственности за их содержание. Просьба не заливать файлы, защищенные авторскими правами, а также файлы нелегального содержания!


    _________________
    [Профиль] [ЛС]
    Показать сообщения:    
    Ответить на тему

    Текущее время: Сегодня, в 12:18

    Часовой пояс: GMT + 2



    Вы не можете начинать темы
    Вы не можете отвечать на сообщения
    Вы не можете редактировать свои сообщения
    Вы не можете удалять свои сообщения
    Вы не можете голосовать в опросах
    Вы не можете прикреплять файлы к сообщениям
    Вы не можете скачивать файлы