BitTorrentTracker PerecTracker.org
BitTorrentTracker PerecTracker.org
    
Регистрация  ·  Вход
 
 · 
Забыли пароль?

  • Уездрая драма / Предмет обожания (Олег Базилов) [2014, драма, WEB-DLRip]

    Ответить на тему
     
    Автор Сообщение

    Flirldrerve

    Создавать темы 22-Сен-2016 21:05

           

    [Цитировать]

    Уездная драма / Предмет обожания
    Жанр: драма
    Год выпуска: 2014
    Продолжительность: 01:19:34
    Режиссёр: Олег Базилов
    В ролях: Павел Делонг, Анна Попова, Сергей Шакуров, Антон Бельский, Борис Миронов, Александр Ткаченок, Александр Парфенович, Нина Пискарёва, Валентина Гарцуева, Тамара Муженко, Татьяна Мархель, Виктор Васильев (II), Игорь Денисов, Игорь Петров (IV), Георгий Малявский
    Описание: По мотивам произведений А.П. Чехова. В имение князя Грохольского приезжает известный беллетрист Борис фон Дидериц с супругой Лизой. Молодая женщина разительно отличается от местных обитательниц красотой, природным изяществом и своей неотразимой женской силой, безотказно действующей на мужчин. Она сводит с ума и хозяина имения, и его молодого, непутевого сына Григория, и друга семьи - уездного исправника, надворного советника Данилу Охлопкова. При полном безразличии своего супруга Лиза каждому из мужчин дарит авансы, каждого манит к себе, но не делает до конца счастливым.
    Дополнительная информация: без субтитров, без рекламы
    Производство: Star Media

    Релиз группа
    Все раздачи фильма: Уездная драма

    Качество видео: WEB-DLRip
    Формат видео: AVI
    Видео: XviD, 720х400 (1,8:1), 25 кадр/с, ~1900 Кбит/сек, 0,264 bit/pixel
    Аудио: АС3, 48 kHz, 2 (L, R) ch, 192 Кбит/с

    MediaInfo

    Общее
    Полное имя                               : C:\otkat\Видео\Предмет обожания\Uezdnaja.dama.2014.WEB-DLRip.Files-x.avi
    Формат                                   : AVI
    Формат/Информация                        : Audio Video Interleave
    Размер файла                             : 1,17 Гбайт
    Продолжительность                        : 1 ч. 19 м.
    Общий поток                              : 2102 Кбит/сек
    Программа кодирования                    : VirtualDubMod 1.5.10.3 | www.virtualdub-fr.org || (build 2550/release)
    Библиотека кодирования                   : VirtualDubMod build 2550/release
    Видео
    Идентификатор                            : 0
    Формат                                   : MPEG-4 Visual
    Профиль формата                          : Advanced Simple@L5
    Параметр BVOP формата                    : 1
    Параметр QPel формата                    : Нет
    Параметр GMC формата                     : Без точки перехода
    Параметр матрицы формата                 : Выборочная
    Идентификатор кодека                     : XVID
    Идентификатор кодека/Подсказка           : XviD
    Продолжительность                        : 1 ч. 19 м.
    Битрейт                                  : 1901 Кбит/сек
    Ширина                                   : 720 пикселей
    Высота                                   : 400 пикселей
    Соотношение сторон                       : 16:9
    Частота кадров                           : 25,000 кадров/сек
    Цветовое пространство                    : YUV
    Субдискретизация насыщенности            : 4:2:0
    Битовая глубина                          : 8 бит
    Тип развёртки                            : Прогрессивная
    Метод сжатия                             : С потерями
    Бит/(Пиксели*Кадры)                      : 0.264
    Размер потока                            : 1,06 Гбайт (90%)
    Библиотека кодирования                   : XviD 73
    Аудио
    Идентификатор                            : 1
    Формат                                   : AC-3
    Формат/Информация                        : Audio Coding 3
    Расширение режима                        : CM (complete main)
    Параметр Endianness формата              : Big
    Идентификатор кодека                     : 2000
    Продолжительность                        : 1 ч. 19 м.
    Вид битрейта                             : Постоянный
    Битрейт                                  : 192 Кбит/сек
    Каналы                                   : 2 канала
    Расположение каналов                     : Front: L R
    Частота                                  : 48,0 КГц
    Частота кадров                           : 31,250 кадров/сек (1536 spf)
    Метод сжатия                             : С потерями
    Размер потока                            : 109 Мбайт (9%)
    Выравнивание                             : Разделение по промежуткам
    Продолжительность промежутка             : 40  мс. (1,00 видеокадр)
    Время предзагрузки промежутка            : 500  мс.

    Скриншот c названием фильма

    Скриншоты

    Скачать .torrent

    Скачать торрент-файл бесплатно и на максимальной скорости!

    Как скачивать? · Что такое торрент? · Рейтинг и ограничения

    !ВНИМАНИЕ!
    Сайт не распространяет и не хранит электронные версии произведений, а занимается лишь лишь предоставлением доступа к создаваемому пользователями каталогу ссылок на торрент-файлы, которые содержат только списки хеш-сумм, убедительная просьба с жалобами обращаться напрямую к пользователю. Файлы для обмена на трекере предоставлены пользователями сайта, и администрация не несёт ответственности за их содержание. Просьба не заливать файлы, защищенные авторскими правами, а также файлы нелегального содержания!


    _________________
    [Профиль] [ЛС]
    Показать сообщения:    
    Ответить на тему

    Текущее время: Сегодня, в 22:27

    Часовой пояс: GMT + 2



    Вы не можете начинать темы
    Вы не можете отвечать на сообщения
    Вы не можете редактировать свои сообщения
    Вы не можете удалять свои сообщения
    Вы не можете голосовать в опросах
    Вы не можете прикреплять файлы к сообщениям
    Вы не можете скачивать файлы