BitTorrentTracker PerecTracker.org
BitTorrentTracker PerecTracker.org
    
Регистрация  ·  Вход
 
 · 
Забыли пароль?

  • Королевское Рождество / A Royal Christmas (Алекс Зэмм / Alex Zamm) [2014, США, Мелодрама, комедия, HDTVRip] VO (Алексей Толмачев)

    Ответить на тему
     
    Автор Сообщение

    Light

    Создавать темы 22-Сен-2016 21:05

           

    [Цитировать]

    Королевское Рождество / A Royal Christmas
    Страна: США
    Жанр: Мелодрама, комедия
    Год выпуска: 2014
    Продолжительность: 01:23:50
    Перевод: Одноголосый закадровый (Алексей Толмачев)
    Перевод на русский язык: Алексей Толмачев
    Cубтитры: нет
    Режиссер: Алекс Зэмм / Alex Zamm
    В ролях: Лэйси Чаберт /Lacey Chabert/, Стивен Хэйген /Stephen Hagan/, Джейн Сеймур /Jane Seymour/, Кэтрин Флинн /Katherine Flynn/, Саймон Даттон /Simon Dutton/, Митчелл Маллен /Mitchell Mullen/, Катрина Нэйр /Katrina Nare/, Диана Думитреску /Diana Dumitrescu/, Влад Янус /Vlad Ianus/, Кейт Лаустау /Kate Loustau/
    Описание: Эмили (Лэйси Чаберт) и Лео (Стивен Хэйген) влюблены друг в друга и готовятся провести первое совместное Рождество. Так бы они его и провели, но их идеальный роман подвергается серьезному испытанию на прочность. Лео оказывается вынужден сообщить своей возлюбленной, считающей его самым обычным парнем, что на самом деле он является наследником трона небольшой, но вполне себе процветающей, европейской страны под названием Кординия. Он приглашает Эмили поехать вместе с ним в Кординию на празднование Рождества. Лео надеется, что там она сможет получше узнать его c новой для себя стороны, а заодно попытается завоевать расположение его матери - королевы Изадоры (Джейн Сеймур), которая желает, чтобы он связал себя узами брака исключительно с девушкой благородного происхождения...

    Сэмпл: http://multi-up.com/1119060
    Качество видео: HDTVRip (источник: A Royal Christmas 2014 (Hallmark) 720p X264 Solar)
    Формат видео: AVI
    Видео: 720x400 (16:9), 29.970 fps, XviD 64, ~2297 kbps, 0.266 bit/pixel
    Аудио: 48.0 kHz, MP3, 2 ch, 128 kbps

    MediaInfo

    General
    Format : AVI
    Format/Info : Audio Video Interleave
    File size : 1.43 GiB
    Duration : 1h 23mn
    Overall bit rate : 2 437 Kbps
    Writing application : VirtualDubMod 1.5.10.2 (build 2540/release)
    Writing library : VirtualDubMod build 2540/release
    Video
    ID : 0
    Format : MPEG-4 Visual
    Format profile : Advanced Simple@L5
    Format settings, BVOP : 1
    Format settings, QPel : No
    Format settings, GMC : No warppoints
    Format settings, Matrix : Default (MPEG)
    Codec ID : XVID
    Codec ID/Hint : XviD
    Duration : 1h 23mn
    Bit rate : 2 297 Kbps
    Width : 720 pixels
    Height : 400 pixels
    Display aspect ratio : 16:9
    Frame rate : 29.970 fps
    Color space : YUV
    Chroma subsampling : 4:2:0
    Bit depth : 8 bits
    Scan type : Progressive
    Compression mode : Lossy
    Bits/(Pixel*Frame) : 0.266
    Stream size : 1.35 GiB (94%)
    Writing library : XviD 64
    Audio
    ID : 1
    Format : MPEG Audio
    Format version : Version 1
    Format profile : Layer 3
    Mode : Joint stereo
    Mode extension : MS Stereo
    Codec ID : 55
    Codec ID/Hint : MP3
    Duration : 1h 23mn
    Bit rate mode : Constant
    Bit rate : 128 Kbps
    Channel count : 2 channels
    Sampling rate : 48.0 KHz
    Compression mode : Lossy
    Stream size : 76.8 MiB (5%)
    Alignment : Split accross interleaves
    Interleave, duration : 33 ms (1.00 video frame)
    Interleave, preload duration : 500 ms

    Скриншот c названием фильма

    Скриншоты


    Скачать .torrent

    Скачать торрент-файл бесплатно и на максимальной скорости!

    Как скачивать? · Что такое торрент? · Рейтинг и ограничения

    !ВНИМАНИЕ!
    Сайт не распространяет и не хранит электронные версии произведений, а занимается лишь лишь предоставлением доступа к создаваемому пользователями каталогу ссылок на торрент-файлы, которые содержат только списки хеш-сумм, убедительная просьба с жалобами обращаться напрямую к пользователю. Файлы для обмена на трекере предоставлены пользователями сайта, и администрация не несёт ответственности за их содержание. Просьба не заливать файлы, защищенные авторскими правами, а также файлы нелегального содержания!


    _________________
    [Профиль] [ЛС]
    Показать сообщения:    
    Ответить на тему

    Текущее время: Сегодня, в 14:14

    Часовой пояс: GMT + 2



    Вы не можете начинать темы
    Вы не можете отвечать на сообщения
    Вы не можете редактировать свои сообщения
    Вы не можете удалять свои сообщения
    Вы не можете голосовать в опросах
    Вы не можете прикреплять файлы к сообщениям
    Вы не можете скачивать файлы