BitTorrentTracker PerecTracker.org
BitTorrentTracker PerecTracker.org
    
Регистрация  ·  Вход
 
 · 
Забыли пароль?

  • Охотники за привидениями / Ghostbusters (Пол Фиг / Paul Feig) [2016, США, фантастика, фэнтези, боевик, WEB-DLRip-AVC] Dub + Original + Sub (rus, eng)

    Ответить на тему
     
    Автор Сообщение

    rechyn

    Создавать темы 22-Сен-2016 16:55

           

    [Цитировать]

    Охотники за привидениями / Ghostbusters«All be repeat! On third trouble...»-Страна: США, Австралия
    Жанр: фантастика, фэнтези, боевик, комедия
    Год выпуска: 2016
    Продолжительность: 01:56:38
    Перевод: Профессиональный (дублированный) (iTunes)
    Оригинальная аудиодорожка: английский
    Cубтитры: русские (форс., полные), английские (полные)
    Навигация по главам: есть
    Режиссер: Пол Фиг / Paul Feig
    В ролях: Мелисса МакКарти (Abby Yates), Кристен Уиг (Erin Gilbert), Кейт МакКиннон (Jillian Holtzmann), Лесли Джонс (Patty Tolan), Крис Хемсворт (Kevin), Сесили Стронг (Jennifer Lynch), Энди Гарсиа (Mayor Bradley), Нил Кэйси (Rowan North), Чарльз Дэнс (Harold Filmore), Майкл Кеннет Уильямс (Agent Hawkins), Мэтт Уолш (Agent Rorke), Майкл МакДональд (Jonathan The Theater Manager)
    Описание: Тридцать лет назад охотники за привидениями спасли Нью-Йорк от нашествия призраков, но теперь городу вновь угрожает опасность. Былые герои не могут стать на его защиту, но находятся и другие отважные люди, всю свою жизнь посвятившие изучению паранормальных явлений. Эбби Йейтс объединяется с Эрин Гилберт, пожалуй лучшим специалистом в квантовой физике, и вместе они собирают команду новых охотников за привидениями, в которую принимают отличного инженера Джиллиан Хольцман, сотрудницу метрополитена Пэтти Толан, знающую город как свои пять пальцев, и секретаря - настоящего красавчика Кэвина. Вместе они начинают борьбу с нечистой силой, терроризирующей мегаполис...- -Качество: WEB-DLRip-AVC (исходник - GHOSTBUSTERS_WEB_DL_1080p-BLUEBIRD)
    Формат видео: MKV
    Видео: x264, 936x386 (2.40:1), 23,976 fps ~2037 kbps, 0.235 bit/pixel
    Аудио 1: 48 kHz, AC3 Dolby Digital, 3/2 (L,C,R,l,r) + LFE ch, ~384 kbps [русский]
    Аудио 2: 48 kHz, AC3 Dolby Digital, 2/0 (L,R) ch, ~192 kbps kbps [английский]
    Формат субтитров: softsub (SRT)-MediaInfo | x264 log
    Format : Matroska
    Format version : Version 4 / Version 2
    File size : 2.17 GiB
    Duration : 1h 56 min
    Overall bit rate : 2 666 kb/s
    Movie name : Охотники за привидениями / Ghostbusters (2016) :: AFM ::
    Encoded date : UTC 2016-09-22 07:28:57
    Writing application : mkvmerge v8.3.0 ('Over the Horizon') 32bit
    Writing library : libebml v1.3.1 + libmatroska v1.4.2
    Video
    ID : 1
    Format : AVC
    Format/Info : Advanced Video Codec
    Format profile : High@L4.1
    Format settings, CABAC : Yes
    Format settings, ReFrames : 11 frames
    Codec ID : V_MPEG4/ISO/AVC
    Duration : 1h 56 min
    Bit rate : 2 037 kb/s
    Width : 936 pixels
    Height : 386 pixels
    Display aspect ratio : 2.40:1
    Frame rate mode : Constant
    Frame rate : 23.976 (24000/1001) FPS
    Color space : YUV
    Chroma subsampling : 4:2:0
    Bit depth : 8 bits
    Scan type : Progressive
    Bits/(Pixel*Frame) : 0.235
    Stream size : 1.66 GiB (76%)
    Title : WEB_DLRip by AFM
    Writing library : x264 core 148 r2705+54 9f484c1 t_mod_Custom [8-bit@all X86_64]
    Encoding settings : cabac=1 / ref=11 / deblock=1:-2:-1 / analyse=0x3:0x113 / me=umh / subme=10 / psy=1 / fade_compensate=0.00 / psy_rd=1.00:0.00 / mixed_ref=1 / me_range=32 / chroma_me=1 / trellis=2 / 8x8dct=1 / cqm=0 / deadzone=21,11 / fast_pskip=0 / chroma_qp_offset=-2 / threads=6 / lookahead_threads=1 / sliced_threads=0 / nr=0 / decimate=1 / interlaced=0 / bluray_compat=0 / constrained_intra=0 / fgo=0 / bframes=11 / b_pyramid=2 / b_adapt=2 / b_bias=0 / direct=1 / weightb=1 / open_gop=0 / weightp=2 / keyint=250 / keyint_min=23 / scenecut=40 / intra_refresh=0 / rc_lookahead=40 / rc=crf / mbtree=0 / crf=18.0000 / qcomp=0.65 / qpmin=0:0:0 / qpmax=69:69:69 / qpstep=4 / vbv_maxrate=50000 / vbv_bufsize=62500 / crf_max=0.0 / nal_hrd=none / filler=0 / ip_ratio=1.35 / pb_ratio=1.30 / aq=3:0.80 / aq-sensitivity=10.00 / aq-factor=1.00:1.00:1.00 / aq2=0 / aq3=0
    Language : English
    Default : Yes
    Forced : No
    Audio #1
    ID : 2
    Format : AC-3
    Format/Info : Audio Coding 3
    Mode extension : CM (complete main)
    Format settings, Endianness : Big
    Codec ID : A_AC3
    Duration : 1h 56 min
    Bit rate mode : Constant
    Bit rate : 384 kb/s
    Channel(s) : 6 channels
    Channel positions : Front: L C R, Side: L R, LFE
    Sampling rate : 48.0 kHz
    Frame rate : 31.250 FPS (1536 spf)
    Compression mode : Lossy
    Stream size : 320 MiB (14%)
    Title : Dub, AC3 5.1 ~384 kbps
    Language : Russian
    Default : Yes
    Forced : No
    Audio #2
    ID : 3
    Format : AC-3
    Format/Info : Audio Coding 3
    Mode extension : CM (complete main)
    Format settings, Endianness : Big
    Codec ID : A_AC3
    Duration : 1h 56 min
    Bit rate mode : Constant
    Bit rate : 192 kb/s
    Channel(s) : 2 channels
    Channel positions : Front: L R
    Sampling rate : 48.0 kHz
    Frame rate : 31.250 FPS (1536 spf)
    Compression mode : Lossy
    Stream size : 160 MiB (7%)
    Title : Original, AC3 2.0 ~192 kbps
    Language : English
    Default : No
    Forced : No
    Text #1
    ID : 4
    Format : UTF-8
    Codec ID : S_TEXT/UTF8
    Codec ID/Info : UTF-8 Plain Text
    Title : forced
    Language : Russian
    Default : Yes
    Forced : No
    Text #2
    ID : 5
    Format : UTF-8
    Codec ID : S_TEXT/UTF8
    Codec ID/Info : UTF-8 Plain Text
    Language : Russian
    Default : No
    Forced : No
    Text #3
    ID : 6
    Format : UTF-8
    Codec ID : S_TEXT/UTF8
    Codec ID/Info : UTF-8 Plain Text
    Language : English
    Default : No
    Forced : No
    Menu
    00:00:00.000 : en:1
    00:08:23.294 : en:2
    00:15:20.753 : en:3
    00:19:58.238 : en:4
    00:25:26.899 : en:5
    00:33:54.948 : en:6
    00:39:03.131 : en:7
    00:45:23.302 : en:8
    00:51:50.105 : en:9
    00:56:32.345 : en:10
    01:01:51.414 : en:11
    01:07:03.100 : en:12
    01:15:42.285 : en:13
    01:23:29.335 : en:14
    01:32:40.636 : en:15
    01:42:48.577 : en:16

    x264

    x264 [info]: frame I:2204 Avg QP:18.08 size: 57204
    x264 [info]: frame P:44247 Avg QP:19.35 size: 20638
    x264 [info]: frame B:121342 Avg QP:22.31 size: 6483
    x264 [info]: consecutive B-frames: 2.7% 5.0% 6.2% 70.5% 6.7% 7.3% 0.6% 0.6% 0.1% 0.1% 0.1% 0.2%
    x264 [info]: mb I I16..4: 2.7% 62.6% 34.7%
    x264 [info]: mb P I16..4: 0.9% 11.0% 3.2% P16..4: 34.2% 27.9% 16.8% 0.0% 0.0% skip: 6.1%
    x264 [info]: mb B I16..4: 0.2% 1.7% 0.6% B16..8: 32.3% 12.3% 4.4% direct: 6.9% skip:41.6% L0:34.8% L1:43.8% BI:21.4%
    x264 [info]: 8x8 transform intra:70.0% inter:57.8%
    x264 [info]: coded y,uvDC,uvAC intra: 83.2% 93.3% 78.9% inter: 24.2% 23.3% 9.5%
    x264 [info]: i16 v,h,dc,p: 31% 15% 7% 47%
    x264 [info]: i8 v,h,dc,ddl,ddr,vr,hd,vl,hu: 20% 12% 6% 7% 10% 11% 11% 10% 12%
    x264 [info]: i4 v,h,dc,ddl,ddr,vr,hd,vl,hu: 26% 10% 4% 7% 11% 11% 11% 9% 11%
    x264 [info]: i8c dc,h,v,p: 35% 22% 24% 19%
    x264 [info]: Weighted P-Frames: Y:4.1% UV:3.2%
    x264 [info]: ref P L0: 55.6% 12.4% 14.6% 5.0% 3.7% 2.5% 2.0% 1.1% 1.1% 0.9% 0.9% 0.1% 0.0%
    x264 [info]: ref B L0: 83.4% 8.2% 3.4% 1.6% 1.1% 0.8% 0.6% 0.4% 0.3% 0.2%
    x264 [info]: ref B L1: 96.6% 3.4%
    x264 [info]: kb/s:2087.23

    Скриншоты

    с названием

    Скачать .torrent

    Скачать торрент-файл бесплатно и на максимальной скорости!

    Как скачивать? · Что такое торрент? · Рейтинг и ограничения

    !ВНИМАНИЕ!
    Сайт не распространяет и не хранит электронные версии произведений, а занимается лишь лишь предоставлением доступа к создаваемому пользователями каталогу ссылок на торрент-файлы, которые содержат только списки хеш-сумм, убедительная просьба с жалобами обращаться напрямую к пользователю. Файлы для обмена на трекере предоставлены пользователями сайта, и администрация не несёт ответственности за их содержание. Просьба не заливать файлы, защищенные авторскими правами, а также файлы нелегального содержания!


    _________________
    [Профиль] [ЛС]
    Показать сообщения:    
    Ответить на тему

    Текущее время: Сегодня, в 18:16

    Часовой пояс: GMT + 2



    Вы не можете начинать темы
    Вы не можете отвечать на сообщения
    Вы не можете редактировать свои сообщения
    Вы не можете удалять свои сообщения
    Вы не можете голосовать в опросах
    Вы не можете прикреплять файлы к сообщениям
    Вы не можете скачивать файлы