BitTorrentTracker PerecTracker.org
BitTorrentTracker PerecTracker.org
    
Регистрация  ·  Вход
 
 · 
Забыли пароль?

  • Темная материя / Dark Matter / Сезон: 2 / Серии: 1-13 из 13 (Рон Мерфи, Т.Дж. Скотт, Паоло Барзмен) [2016, фантастика, триллер, драма, WEB-DLRip] MVO (LostFilm) + Original

    Ответить на тему
     
    Автор Сообщение

    rechyn

    Создавать темы 22-Сен-2016 15:20

           

    [Цитировать]

    ТЕМНАЯ МАТЕРИЯDark Matter-Год выпуска: 2016
    Страна: Канада
    Жанр: фантастика, триллер, драма
    Продолжительность: ~ 00:43:00-Перевод: Профессиональный (многоголосый закадровый) LostFilm
    Режиссёр: Рон Мерфи, Т.Дж. Скотт, Паоло Барзмен
    В ролях: Марк Бендавид (Первый), Мелисса О’Нил (Вторая), Энтони Лемке (Третий), Алекс Маллари мл. (Четвертый), Джодель Ферланд (Пятая), Роджер Р. Кросс (Шестой)-Описание: Заброшенный космический корабль. Шесть человек выходят из состояния стазиса и понимают, что все они потеряли память. Никто из героев не помнит собственного имени, а также того, как и с какой целью он оказался на борту. Каждый из членов экипажа имеет свои способности и навыки, которые, несмотря на амнезию, остались при них. И лишь объединившись в единую команду и заручившись поддержкой находящегося на борту робота, герои смогут понять, что же произошло на самом деле. После чего им предстоит задуматься о выживании, ведь сам корабль и космическое пространство вокруг него таят множество неприятных сюрпризов. Впрочем, чрезвычайно опасны и сами загадочные пассажиры...-Доп. информация: Видео без рекламной вставки и логотипа «LostFilm»-Альтернативные раздачи
    Сэмпл-Качество: WEB-DLRip
    Формат: AVI
    Видео: XviD, 720x400 (16:9), 23,976 fps, ~1500 kbps
    Аудио: Rus. MP3, 48 kHz, 2 ch, 128 kbps
    Аудио: Eng. MP3, 48 kHz, 2 ch, 128 kbps
    Субтитры: отсутствуют

    MediaInfo

    Общее
    Формат                                   : AVI
    Формат/Информация                        : Audio Video Interleave
    Размер файла                             : 555 Мбайт
    Продолжительность                        : 43 м.
    Общий поток                              : 1805 Кбит/сек
    Программа кодирования                    : VirtualDubMod 1.5.10.3 | www.virtualdub-fr.org || (build 2550/release)
    Библиотека кодирования                   : VirtualDubMod build 2550/release
    Видео
    Идентификатор                            : 0
    Формат                                   : MPEG-4 Visual
    Профиль формата                          : Advanced Simple@L5
    Параметр BVOP формата                    : 2
    Параметр QPel формата                    : Нет
    Параметр GMC формата                     : Без точки перехода
    Параметр матрицы формата                 : Выборочная
    Идентификатор кодека                     : XVID
    Идентификатор кодека/Подсказка           : XviD
    Продолжительность                        : 43 м.
    Битрейт                                  : 1535 Кбит/сек
    Ширина                                   : 720 пикселей
    Высота                                   : 400 пикселей
    Соотношение сторон                       : 16:9
    Частота кадров                           : 23,976 (23976/1000) кадра/сек
    Цветовое пространство                    : YUV
    Субдискретизация насыщенности            : 4:2:0
    Битовая глубина                          : 8 бит
    Тип развёртки                            : Прогрессивная
    Метод сжатия                             : С потерями
    Бит/(Пиксели*Кадры)                      : 0.222
    Размер потока                            : 472 Мбайт (85%)
    Библиотека кодирования                   : XviD 73
    Аудио #1
    Идентификатор                            : 1
    Формат                                   : MPEG Audio
    Версия формата                           : Version 1
    Профиль формата                          : Layer 3
    Режим                                    : Joint stereo
    Расширение режима                        : MS Stereo
    Идентификатор кодека                     : 55
    Идентификатор кодека/Подсказка           : MP3
    Продолжительность                        : 43 м.
    Вид битрейта                             : Постоянный
    Битрейт                                  : 128 Кбит/сек
    Каналы                                   : 2 канала
    Частота                                  : 48,0 КГц
    Метод сжатия                             : С потерями
    Размер потока                            : 39,4 Мбайт (7%)
    Выравнивание                             : Соединение по промежуткам
    Продолжительность промежутка             : 42  мс. (1,00 видеокадр)
    Время предзагрузки промежутка            : 504  мс.
    Аудио #2
    Идентификатор                            : 2
    Формат                                   : MPEG Audio
    Версия формата                           : Version 1
    Профиль формата                          : Layer 3
    Режим                                    : Joint stereo
    Расширение режима                        : MS Stereo
    Идентификатор кодека                     : 55
    Идентификатор кодека/Подсказка           : MP3
    Продолжительность                        : 43 м.
    Вид битрейта                             : Постоянный
    Битрейт                                  : 128 Кбит/сек
    Каналы                                   : 2 канала
    Частота                                  : 48,0 КГц
    Метод сжатия                             : С потерями
    Размер потока                            : 39,4 Мбайт (7%)
    Выравнивание                             : Соединение по промежуткам
    Продолжительность промежутка             : 42  мс. (1,00 видеокадр)
    Время предзагрузки промежутка            : 504  мс.

    Скриншоты

    Скачать .torrent

    Скачать торрент-файл бесплатно и на максимальной скорости!

    Как скачивать? · Что такое торрент? · Рейтинг и ограничения

    !ВНИМАНИЕ!
    Сайт не распространяет и не хранит электронные версии произведений, а занимается лишь лишь предоставлением доступа к создаваемому пользователями каталогу ссылок на торрент-файлы, которые содержат только списки хеш-сумм, убедительная просьба с жалобами обращаться напрямую к пользователю. Файлы для обмена на трекере предоставлены пользователями сайта, и администрация не несёт ответственности за их содержание. Просьба не заливать файлы, защищенные авторскими правами, а также файлы нелегального содержания!


    _________________
    [Профиль] [ЛС]
    Показать сообщения:    
    Ответить на тему

    Текущее время: Сегодня, в 09:47

    Часовой пояс: GMT + 2



    Вы не можете начинать темы
    Вы не можете отвечать на сообщения
    Вы не можете редактировать свои сообщения
    Вы не можете удалять свои сообщения
    Вы не можете голосовать в опросах
    Вы не можете прикреплять файлы к сообщениям
    Вы не можете скачивать файлы