BitTorrentTracker PerecTracker.org
BitTorrentTracker PerecTracker.org
    
Регистрация  ·  Вход
 
 · 
Забыли пароль?

  • Медсестра / Серии: 1-12 из 12 (Михаил Журавкин) [2016, Мелодрама, драма, HDTVRip]

    Ответить на тему
     
    Автор Сообщение

    rechyn

    Создавать темы 22-Сен-2016 15:18

           

    [Цитировать]

    Медсестра
    -Год выпуска: 2016
    Производство: Россия, Кинокомпания «Про-Синема»
    Жанр: Мелодрама, драма
    Продолжительность: 00:53:27
    Субтитры: Нет
    Режиссёр: Михаил Журавкин
    В ролях: Денис Бургазлиев, Виктория Толстоганова, Олег Фомин, Елена Полякова, Татьяна Демидова (IV), Михаил Трухин, Евгений Рахманько, Аглая Шиловская, Артем Лысков, Александр Пашков
    Описание: Старшей медсестре городской больницы Анне Виталс, муж которой пропал без вести пять лет назад, приходится одной воспитывать взрослеющую дочь и ухаживать за пожилой матерью. Молодая женщина совсем не думает о себе и живет только работой. Она успешно руководит медицинским персоналом и не уступает в профессиональных навыках ведущим специалистам отделения. Ежедневно по роду своей деятельности Аня сталкивается с трагедией и болью людей, но не теряет чувства сострадания и старается всячески помочь попавшим в беду. Ее жизнь начинает меняться с приходом в больницу нового заведующего кардиологическим отделением Игоря Борисовича…
    -Все раздачи сериала--Качество: HDTVRip
    Формат: AVI
    Видео кодек: XviD
    Аудио кодек: AC3
    Видео: 720x304 (2.35:1), 25.000 fps, XviD build 73, 1800 Kbps Kbps, 0.32 Bits/Pixel
    Аудио: 48 kHz, AC3 Dolby Digital, 2 ch, 192 Kbps--Релиз-группа: l --

    MI

    General
    Complete name : Downloads\Medsestra.HDTVRip.GeneralFilm
    Format : AVI
    Format/Info : Audio Video Interleave
    File size : 753 MiB
    Duration : 52mn 35s
    Overall bit rate : 2 002 Kbps
    Writing application : VirtualDubMod 1.5.10.3 (build 2550/release)
    Writing library : VirtualDubMod build 2550/release
    Video #0
    ID : 0
    Format : MPEG-4 Visual
    Format profile : Advanced Simple@L5
    Format settings, BVOP : 1
    Format settings, QPel : No
    Format settings, GMC : No warppoints
    Format settings, Matrix : Custom
    Codec ID : XVID
    Codec ID/Hint : XviD
    Duration : 52mn 35s
    Bit rate : 1 800 Kbps
    Width : 720 pixels
    Height : 304 pixels
    Display aspect ratio : 2.35:1
    Frame rate : 25.000 fps
    Color space : YUV
    Chroma subsampling : 4:2:0
    Bit depth : 8 bits
    Scan type : Progressive
    Compression mode : Lossy
    Bits/(Pixel*Frame) : 0.329
    Stream size : 677 MiB (90%)
    Writing library : XviD 73
    Audio #1
    ID : 1
    Format : AC-3
    Format/Info : Audio Coding 3
    Mode extension : CM (complete main)
    Format settings, Endianness : Big
    Codec ID : 2000
    Duration : 52mn 35s
    Bit rate mode : Constant
    Bit rate : 192 Kbps
    Channel(s) : 2 channels
    Channel positions : Front: L R
    Sampling rate : 48.0 KHz
    Bit depth : 16 bits
    Compression mode : Lossy
    Stream size : 72.2 MiB (10%)
    Alignment : Split accross interleaves
    Interleave, duration : 40 ms (1.00 video frame)
    Interleave, preload duration : 500 ms

    Скриншоты

    Скачать .torrent

    Скачать торрент-файл бесплатно и на максимальной скорости!

    Как скачивать? · Что такое торрент? · Рейтинг и ограничения

    !ВНИМАНИЕ!
    Сайт не распространяет и не хранит электронные версии произведений, а занимается лишь лишь предоставлением доступа к создаваемому пользователями каталогу ссылок на торрент-файлы, которые содержат только списки хеш-сумм, убедительная просьба с жалобами обращаться напрямую к пользователю. Файлы для обмена на трекере предоставлены пользователями сайта, и администрация не несёт ответственности за их содержание. Просьба не заливать файлы, защищенные авторскими правами, а также файлы нелегального содержания!


    _________________
    [Профиль] [ЛС]
    Показать сообщения:    
    Ответить на тему

    Текущее время: Сегодня, в 22:04

    Часовой пояс: GMT + 2



    Вы не можете начинать темы
    Вы не можете отвечать на сообщения
    Вы не можете редактировать свои сообщения
    Вы не можете удалять свои сообщения
    Вы не можете голосовать в опросах
    Вы не можете прикреплять файлы к сообщениям
    Вы не можете скачивать файлы