BitTorrentTracker PerecTracker.org
BitTorrentTracker PerecTracker.org
    
Регистрация  ·  Вход
 
 · 
Забыли пароль?

  • Любовь / Love (Гаспар Ноэ / Gaspar Noé) [2015, Франция, Бельгия, Мелодрама, эротика, BDRip-AVC] MVO + Sub Fre + Original Eng

    Ответить на тему
     
    Автор Сообщение

    Light

    Создавать темы 22-Сен-2016 12:45

           

    [Цитировать]

    Любовь / Love-Страна: Франция, Бельгия
    Жанр: Мелодрама, эротика
    Год выпуска: 2015
    Продолжительность: 02:09:22-Перевод: Профессиональный (многоголосый закадровый) IPTV
    Cубтитры: Французские
    Оригинальная аудиодорожка: Английская-Режиссер: Гаспар Ноэ / Gaspar Noé
    В ролях: Аоми Муйок, Карл Глусман, Клара Кристин, Хуан Сааведра, Гаспар Ноэ, Венсан Мараваль, Бенуа Деби, Стелла Роча, Дебора Реви
    Описание: Любовь вне добра и зла. Любовь — это генетическая потребность. Это дар и проклятие. Любовь — это болезнь, наркотик. Это потеря и обретение себя. Любовь — это самое прекрасное и самое ужасное в нашей жизни. Любовь — это переплетение душ и соединение тел. «Любовь» — это возбуждающая сексуальная мелодрама о парне, девушке и еще одной девушке.--Качество видео: BDRip-AVC [BDRemux / Lubov.2015.BDRemux.1080p.nnm-club]
    Формат видео: MKV
    Видео: AVC, 1152*482 (2.40:1), 2 025 kb/s, 25.000 fps, 0.146 bit/pixel
    Аудио 1: AC-3, 48.0 KHz, 448 Kbps, 5.1 ch [Rus]Аудио 2: AC-3, 48.0 KHz, 448 Kbps, 5.1 ch [Eng]
    Формат субтитров: softsub (SRT)
    18+

    MediaInfo

    General
    Unique ID : 246288706104640323588598024035850212938 (0xB9497ABA4B70FD48AA445072CD8F564A)
    Complete name : C:\Movie\Любовь (Love). BDRip-AVC 2015.mkv
    Format : Matroska
    Format version : Version 4 / Version 2
    File size : 2.64 GiB
    Duration : 2 h 9 min
    Overall bit rate : 2 924 kb/s
    Movie name : Любовь / Love 2015 - Rutracker
    Encoded date : UTC 2016-09-20 12:13:59
    Writing application : mkvmerge v9.2.0 ('Photograph') 32bit
    Writing library : libebml v1.3.3 + libmatroska v1.4.4
    Cover : Yes
    Attachments : cover.png
    Video
    ID : 1
    Format : AVC
    Format/Info : Advanced Video Codec
    Format profile : High@L4.1
    Format settings, CABAC : Yes
    Format settings, ReFrames : 10 frames
    Codec ID : V_MPEG4/ISO/AVC
    Duration : 2 h 9 min
    Bit rate : 2 025 kb/s
    Width : 1 152 pixels
    Height : 482 pixels
    Display aspect ratio : 2.40:1
    Frame rate mode : Constant
    Frame rate : 25.000 FPS
    Color space : YUV
    Chroma subsampling : 4:2:0
    Bit depth : 8 bits
    Scan type : Progressive
    Bits/(Pixel*Frame) : 0.146
    Stream size : 1.83 GiB (69%)
    Title : Love 2015
    Writing library : x264 core 148 r2638 7599210
    Encoding settings : cabac=1 / ref=10 / deblock=1:-3:-2 / analyse=0x3:0x133 / me=tesa / subme=11 / psy=1 / psy_rd=1.00:0.00 / mixed_ref=1 / me_range=32 / chroma_me=1 / trellis=2 / 8x8dct=1 / cqm=0 / deadzone=21,11 / fast_pskip=1 / chroma_qp_offset=-2 / threads=6 / lookahead_threads=1 / sliced_threads=0 / nr=0 / decimate=1 / interlaced=0 / bluray_compat=0 / constrained_intra=0 / bframes=12 / b_pyramid=2 / b_adapt=2 / b_bias=0 / direct=3 / weightb=1 / open_gop=0 / weightp=2 / keyint=250 / keyint_min=25 / scenecut=40 / intra_refresh=0 / rc_lookahead=60 / rc=crf / mbtree=1 / crf=17.2 / qcomp=0.60 / qpmin=0 / qpmax=69 / qpstep=4 / vbv_maxrate=62500 / vbv_bufsize=78125 / crf_max=0.0 / nal_hrd=none / filler=0 / ip_ratio=1.40 / aq=1:1.00
    Default : Yes
    Forced : No
    Audio #1
    ID : 2
    Format : AC-3
    Format/Info : Audio Coding 3
    Mode extension : CM (complete main)
    Format settings, Endianness : Big
    Codec ID : A_AC3
    Duration : 2 h 9 min
    Bit rate mode : Constant
    Bit rate : 448 kb/s
    Channel(s) : 6 channels
    Channel positions : Front: L C R, Side: L R, LFE
    Sampling rate : 48.0 kHz
    Frame rate : 31.250 FPS (1536 spf)
    Compression mode : Lossy
    Stream size : 415 MiB (15%)
    Title : AC-3, 448 kb/s / MVO
    Language : Russian
    Default : Yes
    Forced : No
    Audio #2
    ID : 3
    Format : AC-3
    Format/Info : Audio Coding 3
    Mode extension : CM (complete main)
    Format settings, Endianness : Big
    Codec ID : A_AC3
    Duration : 2 h 9 min
    Bit rate mode : Constant
    Bit rate : 448 kb/s
    Channel(s) : 6 channels
    Channel positions : Front: L C R, Side: L R, LFE
    Sampling rate : 48.0 kHz
    Frame rate : 31.250 FPS (1536 spf)
    Compression mode : Lossy
    Stream size : 415 MiB (15%)
    Title : AC-3, 448 kb/s / Original
    Language : English
    Default : No
    Forced : No
    Text
    ID : 4
    Format : UTF-8
    Codec ID : S_TEXT/UTF8
    Codec ID/Info : UTF-8 Plain Text
    Duration : 2 h 2 min
    Bit rate : 30 b/s
    Count of elements : 1290
    Stream size : 27.1 KiB (0%)
    Title : Full
    Language : French
    Default : No
    Forced : No
    Menu
    00:00:00.000 : :Chapter 1
    00:07:37.000 : :Chapter 2
    00:23:08.640 : :Chapter 3
    00:46:10.240 : :Chapter 4
    01:09:00.640 : :Chapter 5
    01:29:58.040 : :Chapter 6
    01:48:43.720 : :Chapter 7
    02:04:42.160 : :Chapter 8

    x264

    x264 [info]: frame I:896 Avg QP:13.11 size: 82541
    x264 [info]: frame P:36159 Avg QP:16.80 size: 23240
    x264 [info]: frame B:157019 Avg QP:19.41 size: 6692
    x264 [info]: consecutive B-frames: 1.3% 0.7% 2.2% 10.0% 18.4% 52.4% 6.7% 2.5% 1.4% 1.0% 0.8% 1.0% 1.7%
    x264 [info]: mb I I16..4: 9.2% 71.2% 19.6%
    x264 [info]: mb P I16..4: 0.7% 3.6% 0.6% P16..4: 32.4% 35.5% 15.8% 2.2% 0.2% skip: 9.1%
    x264 [info]: mb B I16..4: 0.1% 0.4% 0.1% B16..8: 31.3% 16.7% 3.1% direct: 3.4% skip:44.9% L0:48.9% L1:43.3% BI: 7.8%
    x264 [info]: 8x8 transform intra:73.0% inter:61.2%
    x264 [info]: direct mvs spatial:100.0% temporal:0.0%
    x264 [info]: coded y,uvDC,uvAC intra: 71.0% 79.9% 62.6% inter: 18.5% 17.8% 5.1%
    x264 [info]: i16 v,h,dc,p: 57% 11% 5% 27%
    x264 [info]: i8 v,h,dc,ddl,ddr,vr,hd,vl,hu: 16% 6% 13% 9% 12% 12% 11% 11% 11%
    x264 [info]: i4 v,h,dc,ddl,ddr,vr,hd,vl,hu: 28% 6% 9% 8% 11% 11% 9% 9% 9%
    x264 [info]: i8c dc,h,v,p: 36% 26% 22% 16%
    x264 [info]: Weighted P-Frames: Y:5.3% UV:4.1%
    x264 [info]: ref P L0: 36.5% 6.0% 19.3% 8.1% 7.9% 5.9% 6.0% 3.2% 3.5% 3.1% 0.4% 0.0%
    x264 [info]: ref B L0: 62.7% 13.1% 8.0% 4.7% 3.7% 3.3% 2.8% 1.2% 0.6%
    x264 [info]: ref B L1: 92.2% 7.8%
    x264 [info]: kb/s:2025.00

    Скриншоты

    -
    Скачать .torrent

    Скачать торрент-файл бесплатно и на максимальной скорости!

    Как скачивать? · Что такое торрент? · Рейтинг и ограничения

    !ВНИМАНИЕ!
    Сайт не распространяет и не хранит электронные версии произведений, а занимается лишь лишь предоставлением доступа к создаваемому пользователями каталогу ссылок на торрент-файлы, которые содержат только списки хеш-сумм, убедительная просьба с жалобами обращаться напрямую к пользователю. Файлы для обмена на трекере предоставлены пользователями сайта, и администрация не несёт ответственности за их содержание. Просьба не заливать файлы, защищенные авторскими правами, а также файлы нелегального содержания!


    _________________
    [Профиль] [ЛС]
    Показать сообщения:    
    Ответить на тему

    Текущее время: Сегодня, в 15:00

    Часовой пояс: GMT + 2



    Вы не можете начинать темы
    Вы не можете отвечать на сообщения
    Вы не можете редактировать свои сообщения
    Вы не можете удалять свои сообщения
    Вы не можете голосовать в опросах
    Вы не можете прикреплять файлы к сообщениям
    Вы не можете скачивать файлы