BitTorrentTracker PerecTracker.org
BitTorrentTracker PerecTracker.org
    
Регистрация  ·  Вход
 
 · 
Забыли пароль?

  • Запрет (Алексей Козлов) [2014, драма, военный, HDTVRip]

    Ответить на тему
     
    Автор Сообщение

    Flirldrerve

    Создавать темы 22-Сен-2016 04:25

           

    [Цитировать]

    Запрет

    Жанр: драма, военный
    Год выпуска: 2015
    Продолжительность: 01:28:18
    Режиссёр: Алексей Козлов
    В ролях: Наталья Ткаченко, Анна Молчанова, Джулиано Ди Капуа, Сергей Яценюк, Георгий Тараторкин, Валентина Панина, Сергей Жукович, Мария Рочева, Ирина Обрезкова, Дмитрий Кочкин, Денис Моисеев, Руслан Барабанов, Дмитрий Чудин, Вячеслав Отливанов, Сергей Евдокимов, Сергей Завьялов, Фабио Пирола, Даниил Кокин, Полина Чичканова
    Описание: «Запрет» - это фильм о том, что любовь способна побеждать в самых безвыходных ситуациях. Это страстная новелла о проявлении человеческих чувств, о поиске смиреной истины в этом грохочущем мире. Это история любви итальянского офицера Джакомо и православной послушницы Лоры. Идёт война, и на любовь наложен запрет. Джакомо – итальянец, и он – враг! Так рассуждает обожженный войной, непримиримый к врагу русский капитан Георгий, от любви к которому тает сердце монахини Пелагеи. Их будет четверо, загнанных войной на маленький каменный остров в Ладоге. Они все здесь, на этом камне, как у Бога на ладошке… Кому из них суждено погибнуть? Кому победить и остаться в живых?
    Доп. информация: реклама отсутствует
    Производство: Студия "КонтАкт Продакшн"

    Релиз группа
    Все раздачи фильма: Запрет

    Качество видео: HDTVRip
    Формат видео: AVI
    Видео: XviD, 720х400 (1,8:1), 25 кадр/с, ~2017 Кбит/сек, 0,280 bit/pixel
    Аудио: АС3, 48 kHz, 2 (L, R) ch, 192 Кбит/с

    MediaInfo

    Общее
    Полное имя                               : C:\otkat\Видео\Запрет\Zapret.2014.HDTVRip.Files-x.avi
    Формат                                   : AVI
    Формат/Информация                        : Audio Video Interleave
    Размер файла                             : 1,37 Гбайт
    Продолжительность                        : 1 ч. 28 м.
    Общий поток                              : 2219 Кбит/сек
    Программа кодирования                    : VirtualDubMod 1.5.10.3 | www.virtualdub-fr.org || (build 2550/release)
    Библиотека кодирования                   : VirtualDubMod build 2550/release
    Видео
    Идентификатор                            : 0
    Формат                                   : MPEG-4 Visual
    Профиль формата                          : Advanced Simple@L5
    Параметр BVOP формата                    : 1
    Параметр QPel формата                    : Нет
    Параметр GMC формата                     : Без точки перехода
    Параметр матрицы формата                 : Выборочная
    Идентификатор кодека                     : XVID
    Идентификатор кодека/Подсказка           : XviD
    Продолжительность                        : 1 ч. 28 м.
    Битрейт                                  : 2017 Кбит/сек
    Ширина                                   : 720 пикселей
    Высота                                   : 400 пикселей
    Соотношение сторон                       : 16:9
    Частота кадров                           : 25,000 кадров/сек
    Цветовое пространство                    : YUV
    Субдискретизация насыщенности            : 4:2:0
    Битовая глубина                          : 8 бит
    Тип развёртки                            : Прогрессивная
    Метод сжатия                             : С потерями
    Бит/(Пиксели*Кадры)                      : 0.280
    Размер потока                            : 1,24 Гбайт (91%)
    Библиотека кодирования                   : XviD 73
    Аудио
    Идентификатор                            : 1
    Формат                                   : AC-3
    Формат/Информация                        : Audio Coding 3
    Расширение режима                        : CM (complete main)
    Параметр Endianness формата              : Big
    Идентификатор кодека                     : 2000
    Продолжительность                        : 1 ч. 28 м.
    Вид битрейта                             : Постоянный
    Битрейт                                  : 192 Кбит/сек
    Каналы                                   : 2 канала
    Расположение каналов                     : Front: L R
    Частота                                  : 48,0 КГц
    Частота кадров                           : 31,250 кадров/сек (1536 spf)
    Метод сжатия                             : С потерями
    Размер потока                            : 121 Мбайт (9%)
    Выравнивание                             : Разделение по промежуткам
    Продолжительность промежутка             : 40  мс. (1,00 видеокадр)
    Время предзагрузки промежутка            : 500  мс.

    Скриншот c названием фильма

    Скриншоты

    Скачать .torrent

    Скачать торрент-файл бесплатно и на максимальной скорости!

    Как скачивать? · Что такое торрент? · Рейтинг и ограничения

    !ВНИМАНИЕ!
    Сайт не распространяет и не хранит электронные версии произведений, а занимается лишь лишь предоставлением доступа к создаваемому пользователями каталогу ссылок на торрент-файлы, которые содержат только списки хеш-сумм, убедительная просьба с жалобами обращаться напрямую к пользователю. Файлы для обмена на трекере предоставлены пользователями сайта, и администрация не несёт ответственности за их содержание. Просьба не заливать файлы, защищенные авторскими правами, а также файлы нелегального содержания!


    _________________
    [Профиль] [ЛС]
    Показать сообщения:    
    Ответить на тему

    Текущее время: Сегодня, в 06:53

    Часовой пояс: GMT + 2



    Вы не можете начинать темы
    Вы не можете отвечать на сообщения
    Вы не можете редактировать свои сообщения
    Вы не можете удалять свои сообщения
    Вы не можете голосовать в опросах
    Вы не можете прикреплять файлы к сообщениям
    Вы не можете скачивать файлы