BitTorrentTracker PerecTracker.org
BitTorrentTracker PerecTracker.org
    
Регистрация  ·  Вход
 
 · 
Забыли пароль?

  • Барби и щелкунчик / Барби в "Щелкунчике" / Barbie in the Nutcracker (Оуэн Хёрли / Owen Hurley) [2001, США, Мультфильм, DVDRip] AVO Сергей Визгунов

    Ответить на тему
     
    Автор Сообщение

    Flirldrerve

    Создавать темы 21-Сен-2016 15:45

           

    [Цитировать]

    Барби и щелкунчик / Барби в "Щелкунчике" / Barbie in the Nutcracker
    «В своем первом фильме»
    Страна: США
    Жанр: Мультфильм
    Продолжительность: 01:16:27
    Год выпуска: 2001
    Перевод: Авторский (одноголосый закадровый) Сергей Визгунов
    Русские субтитры: нет
    Режиссёр: Оуэн Хёрли / Owen Hurley
    Роли озвучивали: Келли Шеридан, Кирби Морроу, Тим Карри, Питер Келамис, Кристофер Газе, Йен Джеймс Корлетт, Френч Тикнер, Кэтлин Барр, Кэти Уэслак, Алекс Додук
    Описание: История начинается с того, что Клара получает в подарок от своей любимой тети маленького деревянного человечка в красивой гвардейской форме. Основная обязанность нарядного Щелкунчика, как известно, — колоть орехи. Однако тетя шепнула Кларе, что внутри безмолвного, деревянного истуканчика бьется сердце настоящего принца.
    Когда часы пробили полночь, в уснувшем доме начали происходить чудеса. Из крошечной норы в комнате появился злобный Мышиный Король и его солдаты. Лишь Щелкунчик знает о надвигающейся опасности. Он оживает, чтобы защитить свою госпожу.
    Но Мышиный Король успевает наложить на Клару заклятие: отныне она будет такой же маленькой, как и ее верный игрушечный Щелкунчик. Теперь Кларе и Щелкунчику предстоит отправиться в фантастическое путешествие, чтобы разрушить чары Мышиного Короля…
    Доп. информация: Дорожка с С. Визгуновым синхронизирована и наложена ale_x2008 при помощи Sony Vegas и VirtualDubMod.
    За оцифрованную с VHS дорожку благодарим - buyanoff.vladimir

    Релиз
    Семпл: https://yadi.sk/i/uULRdr8pvUxjS
    Качество: DVDRip
    Формат: AVI
    Видео: XviD build 73, 704x400 (1.76:1), 25.00 fps, 1838 kbps avg, 0.26 bit/pixel
    Аудио: AC3 Dolby Digital, 48000Hz, 2/0 (mono) ch, 192.00 kbps avg
    Субтитры: отсутствуют

    Подробные технические данные

    Барби и щелкунчик - Barbie in the Nutcracker (by ale_2008).aviFormat : AVIFormat/Info : Audio Video InterleaveFile size : 1.09 GiBDuration : 1 h 16 minOverall bit rate : 2 041 kb/sMovie name : Барби и щелкунчик - Barbie in the Nutcracker (by ale_2008)Director : by ale_x2008Writing application : VirtualDubMod 1.5.10.3 (build 2550/release)Copyright : Edich2Comment : RuTracker.org
    VideoID : 0Format : MPEG-4 VisualFormat profile : Advanced Simple@L5Format settings, BVOP : 2Format settings, QPel : NoFormat settings, GMC : No warppointsFormat settings, Matrix : CustomCodec ID : XVIDCodec ID/Hint : XviDDuration : 1 h 16 minBit rate : 1 839 kb/sWidth : 704 pixelsHeight : 400 pixelsDisplay aspect ratio : 16:9Frame rate : 25.000 FPSColor space : YUVChroma subsampling : 4:2:0Bit depth : 8 bitsScan type : ProgressiveCompression mode : LossyBits/(Pixel*Frame) : 0.261Stream size : 1 006 MiB (90%)Writing library : XviD 73
    AudioID : 1Format : AC-3Format/Info : Audio Coding 3Mode extension : CM (complete main)Format settings, Endianness : BigCodec ID : 2000Duration : 1 h 16 minBit rate mode : ConstantBit rate : 192 kb/sChannel(s) : 2 channelsChannel positions : Front: L RSampling rate : 48.0 kHzFrame rate : 31.250 FPS (1536 spf)Compression mode : LossyStream size : 105 MiB (9%)Alignment : Split accross interleavesInterleave, duration : 40 ms (1.00 video frame)Interleave, preload duratio : 500 ms

    Скриншоты


    Скачать .torrent

    Скачать торрент-файл бесплатно и на максимальной скорости!

    Как скачивать? · Что такое торрент? · Рейтинг и ограничения

    !ВНИМАНИЕ!
    Сайт не распространяет и не хранит электронные версии произведений, а занимается лишь лишь предоставлением доступа к создаваемому пользователями каталогу ссылок на торрент-файлы, которые содержат только списки хеш-сумм, убедительная просьба с жалобами обращаться напрямую к пользователю. Файлы для обмена на трекере предоставлены пользователями сайта, и администрация не несёт ответственности за их содержание. Просьба не заливать файлы, защищенные авторскими правами, а также файлы нелегального содержания!


    _________________
    [Профиль] [ЛС]
    Показать сообщения:    
    Ответить на тему

    Текущее время: Сегодня, в 14:44

    Часовой пояс: GMT + 2



    Вы не можете начинать темы
    Вы не можете отвечать на сообщения
    Вы не можете редактировать свои сообщения
    Вы не можете удалять свои сообщения
    Вы не можете голосовать в опросах
    Вы не можете прикреплять файлы к сообщениям
    Вы не можете скачивать файлы