Register  ·  Log in
Forgot password?

  • Сказки У / Казки У (2014-2016) SATRip (сезон 1-2, серии 1-17 из 28) (обновляемая) [UKR/RUS]

    Reply to topic
    Author Message


    Post 21-Sep-2016 13:21



    - Сказки У / Казки У (2014-2016) SATRip (сезон 1-2, серии 1-17 из 28) [UKR/RUS] -Телекомпания: Украина, ТЕТ
    Производство: Студия "Квартал-95"
    Жанр: Юмор
    Актеры: Игорь Ласточкин, Владимир Борисов, Ирина Сопонару, Юрий Ткач, Виктор Гевко, Сергей Середа, Александр Станкевич и др.
    Новый год - это чудо... Вот и ТЕТ захотелось чего-то волшебного. Так родились сказки, в которых существуют те же герои «Страны У». Это все - любимые сюжеты. Перед сказочными персонажами возникают классические сказочные проблемы. Просто решают они их, нашими современными методами. Например, Кощей Бессмертный участвует в Ice Bucket Challenge эстафете, а Аладдин пытается приобрести себе участок в центре земли и ставит Джину несбывшейся задачи. Задачи остаются сказочными, а методы реализации - современными. И тут появляется такой юмор, которого никто не ожидал.
    Релиз от: simka
    Продолжительность: ~00:28:00 серия
    Качество видео: SATRip
    Язык озвучки: Украинский, Русский
    Видео: Xvid, 720x400, ~1 815 Kbps
    Аудио: MP3, 2 ch, 192 Kbps, CBR


    Complete name                            : D:\MyRS\Сказки У\Сказки У (Сезон 2) (2015-2016)\Сказки У-2.(09.seriya)
    Format                                   : AVI
    Format/Info                              : Audio Video Interleave
    File size                                : 400 MiB
    Duration                                 : 27mn 45s
    Overall bit rate                         : 2 017 Kbps
    Writing application                      : VirtualDubMod | [url=][/url] || (build 2550/release)
    Writing library                          : VirtualDubMod build 2550/release
    ID                                       : 0
    Format                                   : MPEG-4 Visual
    Format profile                           : Advanced Simple@L5
    Format settings, BVOP                    : 1
    Format settings, QPel                    : No
    Format settings, GMC                     : No warppoints
    Format settings, Matrix                  : Default (MPEG)
    Codec ID                                 : XVID
    Codec ID/Hint                            : XviD
    Duration                                 : 27mn 45s
    Bit rate                                 : 1 815 Kbps
    Width                                    : 720 pixels
    Height                                   : 400 pixels
    Display aspect ratio                     : 16:9
    Frame rate                               : 25.000 fps
    Color space                              : YUV
    Chroma subsampling                       : 4:2:0
    Bit depth                                : 8 bits
    Scan type                                : Progressive
    Compression mode                         : Lossy
    Bits/(Pixel*Frame)                       : 0.252
    Stream size                              : 360 MiB (90%)
    Writing library                          : XviD 1.2.1 (UTC 2008-12-04)
    ID                                       : 1
    Format                                   : MPEG Audio
    Format version                           : Version 1
    Format profile                           : Layer 3
    Mode                                     : Joint stereo
    Mode extension                           : MS Stereo
    Codec ID                                 : 55
    Codec ID/Hint                            : MP3
    Duration                                 : 27mn 45s
    Bit rate mode                            : Constant
    Bit rate                                 : 192 Kbps
    Channel(s)                               : 2 channels
    Sampling rate                            : 48.0 KHz
    Compression mode                         : Lossy
    Stream size                              : 38.1 MiB (10%)
    Alignment                                : Aligned on interleaves
    Interleave, duration                     : 40 ms (1.00 video frame)
    Interleave, preload duration             : 504 ms
    Writing library                          : LAME3.99r
    Encoding settings                        : -m j -V 4 -q 2 -lowpass 18.6 -b 192
    Download .torrent

    Download free and at maximum speed!

    How to Download? · What is a torrent? · Ratings and Limitations

    The site does not extend and does not store electronic(digital) versions of products, and only gives access to a reference catalogue created by users on torrent-files which contain only lists of the hash-sums, the earnest entreaty, with complaints(abuse) to access directly to the user. Files for an exchange on tracker are given by users of a site, and the administration does not bear the responsibility for their maintenance. The request to not fill in the files protected by copyrights, and also files of the illegal maintenance!

    [Profile] [PM]
    Display posts from previous:    
    Reply to topic

    The time now is: Today 19:20

    All times are GMT + 3 Hours

    You cannot post new topics in this forum
    You cannot reply to topics in this forum
    You cannot edit your posts in this forum
    You cannot delete your posts in this forum
    You cannot vote in polls in this forum
    You cannot attach files in this forum
    You cannot download files in this forum