BitTorrentTracker PerecTracker.org
BitTorrentTracker PerecTracker.org
    
Регистрация  ·  Вход
 
 · 
Забыли пароль?

  • Рассмеши комика (2016.02.28) SATRip (сезон 11, выпуск 1)

    Ответить на тему
     
    Автор Сообщение

    rechyn

    Создавать темы 21-Сен-2016 12:21

           

    [Цитировать]

    - Рассмеши комика (2016.02.28) SATRip (сезон 11, выпуск 1) -Телекомпания: 1+1
    Жанр: Тв-Шоу, Юмор
    Ведущий: Владимир Зеленский, Евгений Кошевой
    Описание:
    "Рассмеши комика" - народная развлекательная программа, в которой любой человек, обладающий комическим талантом, имеет возможность заработать неплохие деньги. Рассмешить своего знакомого или родственника - это одно дело, а вот заставить смеяться человека, который всю свою жизнь профессионально занимается юмором - такая задача по зубам далеко не каждому ... Зато того, кому удастся рассмешить Евгения Кошевого и Владимира Зеленского, ждет солидное денежное вознаграждение! Никаких жестких правил, никаких серьезных ограничений: заставил комиков смеяться - получи деньги!
    Правила:
    Выступление каждого участника проходит в пять этапов. Каждый этап длится всего одну минуту. Если после прохождения любого из этапов претенденту удалось рассмешить комиков или хотя бы вызвать у них легкую улыбку, он имеет возможность отказаться от дальнейшей борьбы и забрать свой текущий выигрыш в одну, пять, десять или двадцать тысяч гривен. Те, кто рискнут, и будут бороться до конца, получат возможность заработать целых пятьдесят тысяч гривен. Но в случае если по истечению минуты комики остались хладнокровные, участник покидает проект ни с чем.
    Релиз от: Хотт@быч
    Продолжительность: ~ 00:44:11
    Качество видео: SATRip
    Субтитры: Отсутствуют
    Видео: MPEG4, XviD, 720x400 (16:9), 25.000 fps, 1 800 Kbps (0.250 bit/pixel)
    Аудио: AC-3, 44.1 KHz, 2 ch, 128 Kbps, CBR

    Mediainfo:

    Формат                                   : AVI
    Формат/Информация                        : Audio Video Interleave
    Размер файла                             : 612 Мбайт
    Продолжительность                        : 44 м.
    Общий поток                              : 1937 Кбит/сек
    Программа кодирования                    : VirtualDubMod 1.5.10.3 | [url=http://www.virtualdub-fr.org]www.virtualdub-fr.org[/url] || (build 2550/release)
    Библиотека кодирования                   : VirtualDubMod build 2550/release
    Видео
    Идентификатор                            : 0
    Формат                                   : MPEG-4 Visual
    Профиль формата                          : Advanced Simple@L5
    Параметр BVOP формата                    : 3
    Параметр QPel формата                    : Нет
    Параметр GMC формата                     : Без точки перехода
    Параметр матрицы формата                 : Default (H.263)
    Идентификатор кодека                     : XVID
    Идентификатор кодека/Подсказка           : XviD
    Продолжительность                        : 44 м.
    Битрейт                                  : 1800 Кбит/сек
    Ширина                                   : 720 пикселей
    Высота                                   : 400 пикселей
    Соотношение сторон                       : 16:9
    Частота кадров                           : 25,000 кадров/сек
    Цветовое пространство                    : YUV
    Субдискретизация насыщенности            : 4:2:0
    Битовая глубина                          : 8 бит
    Тип развёртки                            : Прогрессивная
    Метод сжатия                             : С потерями
    Бит/(Пиксели*Кадры)                      : 0.250
    Размер потока                            : 569 Мбайт (93%)
    Библиотека кодирования                   : XviD 1.2.1 (UTC 2008-12-04)
    Аудио
    Идентификатор                            : 1
    Формат                                   : AC-3
    Формат/Информация                        : Audio Coding 3
    Расширение режима                        : CM (complete main)
    Параметр Endianness формата              : Big
    Идентификатор кодека                     : 2000
    Продолжительность                        : 44 м.
    Вид битрейта                             : Постоянный
    Битрейт                                  : 128 Кбит/сек
    Каналы                                   : 2 канала
    Расположение каналов                     : Front: L R
    Частота                                  : 44,1 КГц
    Битовая глубина                          : 16 бит
    Метод сжатия                             : С потерями
    Размер потока                            : 40,5 Мбайт (7%)
    Выравнивание                             : Разделение по промежуткам
    Продолжительность промежутка             : 40  мс. (1,00 видеокадр)
    Время предзагрузки промежутка            : 500  мс.
    Скриншоты:
    Скачать .torrent

    Скачать торрент-файл бесплатно и на максимальной скорости!

    Как скачивать? · Что такое торрент? · Рейтинг и ограничения

    !ВНИМАНИЕ!
    Сайт не распространяет и не хранит электронные версии произведений, а занимается лишь лишь предоставлением доступа к создаваемому пользователями каталогу ссылок на торрент-файлы, которые содержат только списки хеш-сумм, убедительная просьба с жалобами обращаться напрямую к пользователю. Файлы для обмена на трекере предоставлены пользователями сайта, и администрация не несёт ответственности за их содержание. Просьба не заливать файлы, защищенные авторскими правами, а также файлы нелегального содержания!


    _________________
    [Профиль] [ЛС]
    Показать сообщения:    
    Ответить на тему

    Текущее время: Сегодня, в 19:28

    Часовой пояс: GMT + 2



    Вы не можете начинать темы
    Вы не можете отвечать на сообщения
    Вы не можете редактировать свои сообщения
    Вы не можете удалять свои сообщения
    Вы не можете голосовать в опросах
    Вы не можете прикреплять файлы к сообщениям
    Вы не можете скачивать файлы