BitTorrentTracker PerecTracker.org
BitTorrentTracker PerecTracker.org
    
Регистрация  ·  Вход
 
 · 
Забыли пароль?

  • Вечерний квартал 95 (2016.03.19) DVB (выпуск 87. 8-е Марта)

    Ответить на тему
     
    Автор Сообщение

    rechyn

    Создавать темы 21-Сен-2016 12:21

           

    [Цитировать]

    - Вечерний квартал 95 (2016.03.19) DVB (выпуск 87. 8-е Марта) -Телекомпания: 1+1
    Производство: "Студия 95 квартал", Телеканал "Интер"
    Жанр: Юмор
    Режиссер: Владимир Зеленский
    Актеры: Владимир Зеленский, Юрий Крапов, Елена Кравец, Евгений Кошевой, Сергей Казанин, Александр Пикалов, Юрий Корявченков
    Описание:
    Ребята из "Вечернего квартала" продолжают устанавливать свои правила. И ни авторитет звезд шоу-бизнеса, ни статус влиятельных политиков, ни сам "президент Украины" не могут этому помешать. Здесь правила одни для всех, и "квартальщики" внимательно следят за тем, чтобы все "забавные законы" соблюдались. Злостных правонарушителей ребята из Квартала определяют по отсутствию улыбки на лице. Но в сегодня такие вряд ли найдутся, ведь у нас - юмор высшего класса от "Вечернего квартала".
    Релиз от: simkanetua
    Продолжительность: 01:36:42
    Качество видео: DVB
    Субтитры: Отсутствуют
    Видео: MPEG 2, 720x576 (4:3), 25.000 fps, 15.0 Mbps (0.522 bit/pixel)
    Аудио: MP2, 48.0 KHz, 2 ch, 192 Kbps, CBR

    Mediainfo:

    Формат                                   : MPEG-TS
    Размер файла                             : 3,99 Гбайт
    Продолжительность                        : 1 ч. 36 м.
    Режим общего битрейта                    : Переменный
    Общий поток                              : 5903 Кбит/сек
    Видео
    Идентификатор                            : 769 (0x301)
    Идентификатор меню                       : 3 (0x3)
    Формат                                   : MPEG Video
    Версия формата                           : Version 2
    Профиль формата                          : Main@Main
    Параметр BVOP формата                    : Да
    Параметр матрицы формата                 : Выборочная
    Параметр GOP формата                     : M=3, N=24
    Структура изображения                    : Frame
    Идентификатор кодека                     : 2
    Продолжительность                        : 1 ч. 36 м.
    Вид битрейта                             : Переменный
    Битрейт                                  : 5417 Кбит/сек
    Максимальный битрейт                     : 15,0 Мбит/сек
    Ширина                                   : 720 пикселей
    Высота                                   : 576 пикселей
    Соотношение сторон                       : 4:3
    Частота кадров                           : 25,000 кадров/сек
    Стандарт вещания                         : PAL
    Цветовое пространство                    : YUV
    Субдискретизация насыщенности            : 4:2:0
    Битовая глубина                          : 8 бит
    Тип развёртки                            : Чересстрочная
    Порядок развёртки                        : Верхнее поле первое
    Метод сжатия                             : С потерями
    Бит/(Пиксели*Кадры)                      : 0.522
    Временной код первого кадра              : 00:00:00:00
    Оригинал временного кода                 : Group of pictures header
    GOP, открыто/закрыто                     : Открыто
    GOP, открыто/закрыто на первом кадре     : Закрыто
    Размер потока                            : 3,66 Гбайт (92%)
    Библиотека кодирования                   : (dvd5: Nov 27 2014)
    Аудио
    Идентификатор                            : 770 (0x302)
    Идентификатор меню                       : 3 (0x3)
    Формат                                   : MPEG Audio
    Версия формата                           : Version 1
    Профиль формата                          : Layer 2
    Идентификатор кодека                     : 3
    Продолжительность                        : 1 ч. 36 м.
    Вид битрейта                             : Постоянный
    Битрейт                                  : 192 Кбит/сек
    Каналы                                   : 2 канала
    Частота                                  : 48,0 КГц
    Метод сжатия                             : С потерями
    Размер потока                            : 133 Мбайт (3%)

    В выпуске:

    - Свадьба Петра Порошенко и Арсения Яценюка
    - Путин любит Украину больше, чем Кабаеву - монолог Владимира Зеленского
    - Политические новости на канале Дискавери
    - Песня - Главный экспонат Украины - На лабутенах и в очках
    - Шоу для замужних женщин "А мне мама говорила"
    - Песня - Я привез жену на маникюр...
    - Поздравляю женщин с днем космонавтики - Валерий Жидков
    - Кризис в стране - кризис в семье
    - 8-ое марта в стиле 50 оттенков серого
    Скриншоты:
    Вечерний квартал 95 на NoNaMe Club
    Время раздачи: 24/7. До первых 5 скачавших.
    Скачать .torrent

    Скачать торрент-файл бесплатно и на максимальной скорости!

    Как скачивать? · Что такое торрент? · Рейтинг и ограничения

    !ВНИМАНИЕ!
    Сайт не распространяет и не хранит электронные версии произведений, а занимается лишь лишь предоставлением доступа к создаваемому пользователями каталогу ссылок на торрент-файлы, которые содержат только списки хеш-сумм, убедительная просьба с жалобами обращаться напрямую к пользователю. Файлы для обмена на трекере предоставлены пользователями сайта, и администрация не несёт ответственности за их содержание. Просьба не заливать файлы, защищенные авторскими правами, а также файлы нелегального содержания!


    _________________
    [Профиль] [ЛС]
    Показать сообщения:    
    Ответить на тему

    Текущее время: Сегодня, в 04:07

    Часовой пояс: GMT + 2



    Вы не можете начинать темы
    Вы не можете отвечать на сообщения
    Вы не можете редактировать свои сообщения
    Вы не можете удалять свои сообщения
    Вы не можете голосовать в опросах
    Вы не можете прикреплять файлы к сообщениям
    Вы не можете скачивать файлы