BitTorrentTracker PerecTracker.org
BitTorrentTracker PerecTracker.org
    
Регистрация  ·  Вход
 
 · 
Забыли пароль?

  • Золотой ключик (1939) SATRip [H.264]

    Ответить на тему
     
    Автор Сообщение

    Light

    Создавать темы 21-Сен-2016 12:20

           

    [Цитировать]

    - Золотой ключик (1939) SATRip -Производство: СССР, Мосфильм
    Жанр: Детский
    Режиссер: Александр Птушко
    Актеры: Александр Щагин, Сергей Мартинсон, Ольга Шаганова-Образцова, Георгий Уваров, Николай Боголюбов, Михаил Дагмаров, Тамара Адельгейм, Р. Хаирова, Николай Мичурин...
    Описание:
    По одноименной сказке Алексея Толстого
    Фильм, в котором вместе с живыми актерами играют и куклы. Именам главных героев: папы Карло, Буратино, Дуремара, черепахи Тортиллы и других персонажей этого произведения суждено было стать нарицательными - столь велика оказалась популярность этой сказки.

    Релиз от :

    Продолжительность: 01:18:34
    Качество видео: SATRip
    Видео: AVC/H.264, 690x572@736x572, ~2815 kbps
    Аудио: MP2, 2 ch, 192 kbps, CBR

    Mediainfo:

    Общее
    Уникальный идентификатор                 : 179193516559782493258731215692143608318 (0x86CF6A7AEDEBFDBDB154FDAC135141FE)
    Полное имя                               : D:\0-TTT\Золотой ключик-Sat-MG-NNM.mkv
    Формат                                   : Matroska
    Версия формата                           : Version 4 / Version 2
    Размер файла                             : 1,65 Гбайт
    Продолжительность                        : 1 ч. 18 м.
    Общий поток                              : 3009 Кбит/сек
    Дата кодирования                         : UTC 2016-01-23 04:52:01
    Программа кодирования                    : mkvmerge v8.8.0 ('Wind at my back') 64bit
    Библиотека кодирования                   : libebml v1.3.3 + libmatroska v1.4.4
    Видео
    Идентификатор                            : 1
    Формат                                   : AVC
    Формат/Информация                        : Advanced Video Codec
    Профиль формата                          : [url=mailto:High@L4.1]High@L4.1[/url]
    Параметр CABAC формата                   : Да
    Параметр ReFrames формата                : 14 кадров
    Идентификатор кодека                     : V_MPEG4/ISO/AVC
    Продолжительность                        : 1 ч. 18 м.
    Битрейт                                  : 2815 Кбит/сек
    Ширина                                   : 690 пикселей
    Высота                                   : 572 пикселя
    Соотношение сторон                       : 1,287
    Режим частоты кадров                     : Постоянный
    Частота кадров                           : 25,000 кадров/сек
    Цветовое пространство                    : YUV
    Субдискретизация насыщенности            : 4:2:0
    Битовая глубина                          : 8 бит
    Тип развёртки                            : Прогрессивная
    Бит/(Пиксели*Кадры)                      : 0.285
    Размер потока                            : 1,55 Гбайт (94%)
    Заголовок                                : FomaTash for nnmclub.to
    Библиотека кодирования                   : x264 core 146 r2538 121396c
    Настройки программы                      : cabac=1 / ref=14 / deblock=1:-1:-1 / analyse=0x3:0x133 / me=umh / subme=9 / psy=1 / psy_rd=1.00:0.15 / mixed_ref=1 / me_range=32 / chroma_me=1 / trellis=2 / 8x8dct=1 / cqm=0 / deadzone=21,11 / fast_pskip=1 / chroma_qp_offset=-3 / threads=6 / lookahead_threads=1 / sliced_threads=0 / nr=0 / decimate=0 / interlaced=0 / bluray_compat=0 / constrained_intra=0 / bframes=12 / b_pyramid=2 / b_adapt=2 / b_bias=0 / direct=3 / weightb=1 / open_gop=0 / weightp=2 / keyint=240 / keyint_min=23 / scenecut=40 / intra_refresh=0 / rc_lookahead=40 / rc=2pass / mbtree=0 / bitrate=2815 / ratetol=1.0 / qcomp=0.60 / qpmin=10 / qpmax=51 / qpstep=4 / cplxblur=20.0 / qblur=0.5 / vbv_maxrate=50000 / vbv_bufsize=62500 / nal_hrd=none / filler=0 / ip_ratio=1.40 / pb_ratio=1.30 / aq=1:1.00
    Язык                                     : Russian
    Default                                  : Да
    Forced                                   : Нет
    Аудио
    Идентификатор                            : 2
    Формат                                   : MPEG Audio
    Версия формата                           : Version 1
    Профиль формата                          : Layer 2
    Идентификатор кодека                     : A_MPEG/L2
    Идентификатор кодека/Подсказка           : MP2
    Продолжительность                        : 1 ч. 18 м.
    Вид битрейта                             : Постоянный
    Битрейт                                  : 192 Кбит/сек
    Каналы                                   : 2 канала
    Частота                                  : 48,0 КГц
    Частота кадров                           : 41,667 кадра/сек (1152 spf)
    Метод сжатия                             : С потерями
    Размер потока                            : 108 Мбайт (6%)
    Заголовок                                : MP2-2 канала
    Язык                                     : Russian
    Default                                  : Да
    Forced                                   : Нет

    x264.log

    --[Information] [23.01.2016 2:37:11] Standard error stream
    ---[Information] [23.01.2016 2:37:16] raw [info]: 690x572p 61347:57500 @ 25/1 fps (cfr)
    ---[Information] [23.01.2016 2:37:16] x264 [info]: using SAR=61347/57500
    ---[Information] [23.01.2016 2:37:16] x264 [info]: using cpu capabilities: MMX2 SSE2Fast SSSE3 SSE4.2
    ---[Information] [23.01.2016 2:37:16] x264 [info]: profile High, level 4.1
    ---[Information] [23.01.2016 6:21:41] x264 [info]: frame I:601 Avg QP:20.55 size: 42769
    ---[Information] [23.01.2016 6:21:41] x264 [info]: frame P:20365 Avg QP:22.90 size: 22646
    ---[Information] [23.01.2016 6:21:41] x264 [info]: frame B:96903 Avg QP:24.82 size: 12097
    ---[Information] [23.01.2016 6:21:41] x264 [info]: consecutive B-frames: 1.0% 0.7% 2.5% 12.7% 15.2% 25.7% 13.5% 12.3% 6.5% 4.4% 2.3% 1.8% 1.4%
    ---[Information] [23.01.2016 6:21:41] x264 [info]: mb I I16..4: 1.4% 86.3% 12.2%
    ---[Information] [23.01.2016 6:21:41] x264 [info]: mb P I16..4: 0.3% 16.9% 1.4% P16..4: 42.6% 27.2% 11.1% 0.1% 0.0% skip: 0.3%
    ---[Information] [23.01.2016 6:21:41] x264 [info]: mb B I16..4: 0.0% 2.0% 0.1% B16..8: 44.5% 20.4% 4.1% direct:19.3% skip: 9.5% L0:51.5% L1:38.2% BI:10.3%
    ---[Information] [23.01.2016 6:21:41] x264 [info]: 8x8 transform intra:90.8% inter:68.9%
    ---[Information] [23.01.2016 6:21:41] x264 [info]: direct mvs spatial:98.6% temporal:1.4%
    ---[Information] [23.01.2016 6:21:41] x264 [info]: coded y,uvDC,uvAC intra: 97.7% 0.0% 0.0% inter: 63.7% 0.0% 0.0%
    ---[Information] [23.01.2016 6:21:41] x264 [info]: i16 v,h,dc,p: 33% 29% 15% 23%
    ---[Information] [23.01.2016 6:21:41] x264 [info]: i8 v,h,dc,ddl,ddr,vr,hd,vl,hu: 9% 10% 6% 8% 13% 11% 16% 10% 17%
    ---[Information] [23.01.2016 6:21:41] x264 [info]: i4 v,h,dc,ddl,ddr,vr,hd,vl,hu: 9% 17% 2% 6% 13% 11% 16% 8% 17%
    ---[Information] [23.01.2016 6:21:41] x264 [info]: i8c dc,h,v,p: 100% 0% 0% 0%
    ---[Information] [23.01.2016 6:21:41] x264 [info]: Weighted P-Frames: Y:71.4% UV:0.0%
    ---[Information] [23.01.2016 6:21:41] x264 [info]: ref P L0: 30.4% 11.2% 11.4% 9.6% 6.6% 6.1% 4.8% 3.5% 2.9% 2.8% 2.4% 2.4% 2.1% 2.2% 1.5% 0.0%
    ---[Information] [23.01.2016 6:21:41] x264 [info]: ref B L0: 52.5% 13.8% 8.4% 5.3% 4.1% 3.7% 3.1% 2.2% 1.9% 1.9% 1.7% 1.0% 0.4%
    ---[Information] [23.01.2016 6:21:41] x264 [info]: ref B L1: 88.1% 11.9%
    ---[Information] [23.01.2016 6:21:41] x264 [info]: kb/s:2815.26
    ---[Information] [23.01.2016 6:21:41] encoded 117869 frames, 8.75 fps, 2815.26 kb/s
    Скриншоты:
    Скачать .torrent

    Скачать торрент-файл бесплатно и на максимальной скорости!

    Как скачивать? · Что такое торрент? · Рейтинг и ограничения

    !ВНИМАНИЕ!
    Сайт не распространяет и не хранит электронные версии произведений, а занимается лишь лишь предоставлением доступа к создаваемому пользователями каталогу ссылок на торрент-файлы, которые содержат только списки хеш-сумм, убедительная просьба с жалобами обращаться напрямую к пользователю. Файлы для обмена на трекере предоставлены пользователями сайта, и администрация не несёт ответственности за их содержание. Просьба не заливать файлы, защищенные авторскими правами, а также файлы нелегального содержания!


    _________________
    [Профиль] [ЛС]
    Показать сообщения:    
    Ответить на тему

    Текущее время: Сегодня, в 01:17

    Часовой пояс: GMT + 2



    Вы не можете начинать темы
    Вы не можете отвечать на сообщения
    Вы не можете редактировать свои сообщения
    Вы не можете удалять свои сообщения
    Вы не можете голосовать в опросах
    Вы не можете прикреплять файлы к сообщениям
    Вы не можете скачивать файлы