Register  ·  Log in
Forgot password?

  • Только не это, ваше величество (1994) VHSRip

    Reply to topic
    Author Message


    Post 21-Sep-2016 13:20



    - Только не это, ваше величество (1994) VHSRip -Производство: Россия, Санкт-Петербург, студия телепрограмм
    Жанр: Детский
    Режиссер: Валерий Обогрелов
    Актеры: Яков Малкин, Валерий Кухарешин, Олег Леваков, Владимир Лелетко, Александр Новиков
    Телеспектакль по мотивам английской сказки.
    Продолжительность: 00:29:29
    Качество видео: VHSRip
    Видео: Xvid, 640x480, ~1501 Кбит/сек
    Аудио: MP3, 2 ch, 128 Кбит/сек


    Полное имя                               : E:\Только не это, ваше величество (1994) VHSRip.avi
    Формат                                   : AVI
    Формат/Информация                        : Audio Video Interleave
    Размер файла                             : 346 Мбайт
    Продолжительность                        : 29 м.
    Общий поток                              : 1638 Кбит/сек
    Программа кодирования                    : Lavf53.19.0
    Библиотека кодирования                   : VirtualDub build 32817/release
    Идентификатор                            : 0
    Формат                                   : MPEG-4 Visual
    Профиль формата                          : Advanced Simple@L5
    Параметр BVOP формата                    : 2
    Параметр QPel формата                    : Нет
    Параметр GMC формата                     : Без точки перехода
    Параметр матрицы формата                 : Default (H.263)
    Режим смешивания                         : Сжатый битовый поток
    Идентификатор кодека                     : XVID
    Идентификатор кодека/Подсказка           : XviD
    Продолжительность                        : 29 м.
    Битрейт                                  : 1501 Кбит/сек
    Ширина                                   : 640 пикселей
    Высота                                   : 480 пикселей
    Соотношение сторон                       : 4:3
    Частота кадров                           : 25,000 кадров/сек
    Цветовое пространство                    : YUV
    Субдискретизация насыщенности            : 4:2:0
    Битовая глубина                          : 8 бит
    Тип развёртки                            : Прогрессивная
    Метод сжатия                             : С потерями
    Бит/(Пиксели*Кадры)                      : 0.195
    Размер потока                            : 317 Мбайт (92%)
    Библиотека кодирования                   : XviD 64
    Идентификатор                            : 1
    Формат                                   : MPEG Audio
    Версия формата                           : Version 1
    Профиль формата                          : Layer 3
    Режим                                    : Joint stereo
    Идентификатор кодека                     : 55
    Идентификатор кодека/Подсказка           : MP3
    Продолжительность                        : 29 м.
    Вид битрейта                             : Постоянный
    Битрейт                                  : 128 Кбит/сек
    Каналы                                   : 2 канала
    Частота                                  : 44,1 КГц
    Метод сжатия                             : С потерями
    Размер потока                            : 27,0 Мбайт (8%)
    Выравнивание                             : Разделение по промежуткам
    Продолжительность промежутка             : 40  мс. (1,00 видеокадр)
    Время предзагрузки промежутка            : 500  мс.
    Библиотека кодирования                   : LAME3.97
    Время раздачи: С 18:00 до 23:00
    Download .torrent

    Download free and at maximum speed!

    How to Download? · What is a torrent? · Ratings and Limitations

    The site does not extend and does not store electronic(digital) versions of products, and only gives access to a reference catalogue created by users on torrent-files which contain only lists of the hash-sums, the earnest entreaty, with complaints(abuse) to access directly to the user. Files for an exchange on tracker are given by users of a site, and the administration does not bear the responsibility for their maintenance. The request to not fill in the files protected by copyrights, and also files of the illegal maintenance!

    [Profile] [PM]
    Display posts from previous:    
    Reply to topic

    The time now is: Today 01:41

    All times are GMT + 3 Hours

    You cannot post new topics in this forum
    You cannot reply to topics in this forum
    You cannot edit your posts in this forum
    You cannot delete your posts in this forum
    You cannot vote in polls in this forum
    You cannot attach files in this forum
    You cannot download files in this forum