Register  ·  Log in
Forgot password?

  • Волшебная бутылка (1999) WEBRip

    Reply to topic
    Author Message


    Post 21-Sep-2016 13:20



    - Волшебная бутылка (1999) WEBRip -Производство: Россия, ГТРК "Петербург 5 канал"
    Жанр: Детский
    Режиссер: Валерий Обогрелов
    Актеры: Иван Латышев
    Из цикла "Сказка за сказкой".
    Передача выходила в эфир с 1979 по 1998 год не только в Ленинграде, но и в других российских городах, а также в Польше и Чехословакии. Это были телевизионные постановки сказок народов мира.По мотивам английских сказок.
    Продолжительность: 00:52:57
    Качество видео: WEBRip
    Видео: Xvid, 640x480, ~1494 Кбит/сек
    Аудио: MP3, 2 ch, 128 Кбит/сек


    Полное имя                               : E:\Волшебная бутылка (1999) WebRip.avi
    Формат                                   : AVI
    Формат/Информация                        : Audio Video Interleave
    Размер файла                             : 618 Мбайт
    Продолжительность                        : 52 м.
    Общий поток                              : 1632 Кбит/сек
    Библиотека кодирования                   : VirtualDub build 32842/release
    Идентификатор                            : 0
    Формат                                   : MPEG-4 Visual
    Профиль формата                          : Advanced Simple@L5
    Параметр BVOP формата                    : 1
    Параметр QPel формата                    : Нет
    Параметр GMC формата                     : Без точки перехода
    Параметр матрицы формата                 : Default (MPEG)
    Идентификатор кодека                     : XVID
    Идентификатор кодека/Подсказка           : XviD
    Продолжительность                        : 52 м.
    Битрейт                                  : 1494 Кбит/сек
    Ширина                                   : 640 пикселей
    Высота                                   : 480 пикселей
    Соотношение сторон                       : 4:3
    Частота кадров                           : 25,000 кадров/сек
    Цветовое пространство                    : YUV
    Субдискретизация насыщенности            : 4:2:0
    Битовая глубина                          : 8 бит
    Тип развёртки                            : Прогрессивная
    Метод сжатия                             : С потерями
    Бит/(Пиксели*Кадры)                      : 0.195
    Размер потока                            : 566 Мбайт (92%)
    Библиотека кодирования                   : XviD 64
    Идентификатор                            : 1
    Формат                                   : MPEG Audio
    Версия формата                           : Version 1
    Профиль формата                          : Layer 3
    Режим                                    : Joint stereo
    Расширение режима                        : MS Stereo
    Идентификатор кодека                     : 55
    Идентификатор кодека/Подсказка           : MP3
    Продолжительность                        : 52 м.
    Вид битрейта                             : Постоянный
    Битрейт                                  : 128 Кбит/сек
    Каналы                                   : 2 канала
    Частота                                  : 44,1 КГц
    Метод сжатия                             : С потерями
    Размер потока                            : 48,5 Мбайт (8%)
    Выравнивание                             : Разделение по промежуткам
    Продолжительность промежутка             : 40  мс. (1,00 видеокадр)
    Время предзагрузки промежутка            : 500  мс.
    Время раздачи: С 18:00 до 23:00
    Download .torrent

    Download free and at maximum speed!

    How to Download? · What is a torrent? · Ratings and Limitations

    The site does not extend and does not store electronic(digital) versions of products, and only gives access to a reference catalogue created by users on torrent-files which contain only lists of the hash-sums, the earnest entreaty, with complaints(abuse) to access directly to the user. Files for an exchange on tracker are given by users of a site, and the administration does not bear the responsibility for their maintenance. The request to not fill in the files protected by copyrights, and also files of the illegal maintenance!

    [Profile] [PM]
    Display posts from previous:    
    Reply to topic

    The time now is: Today 17:21

    All times are GMT + 3 Hours

    You cannot post new topics in this forum
    You cannot reply to topics in this forum
    You cannot edit your posts in this forum
    You cannot delete your posts in this forum
    You cannot vote in polls in this forum
    You cannot attach files in this forum
    You cannot download files in this forum