BitTorrentTracker PerecTracker.org
BitTorrentTracker PerecTracker.org
    
Регистрация  ·  Вход
 
 · 
Забыли пароль?

  • Несколько историй, случившихся в придорожной харчевне (1992) IPTVRip

    Ответить на тему
     
    Автор Сообщение

    Light

    Создавать темы 21-Сен-2016 12:20

           

    [Цитировать]

    - Несколько историй, случившихся в придорожной харчевне (1992) IPTVRip -Производство: Россия, Ленинградское телевидение
    Жанр: Детский
    Режиссер: Валерий Обогрелов
    Актеры: А. Насибулин, В. Лелетко, В. Киселева, В. Кухарешин, В. Волков
    Описание:
    Передача выходила в эфир с 1979 по 1998 год не только в Ленинграде, но и в других российских городах, а также в Польше и Чехословакии. Это были телевизионные постановки сказок народов мира.По мотивам итальянских народных сказок.
    Продолжительность: 00:25:06
    Качество видео: IPTVRip
    Видео: Xvid, 640x480, ~1500 Кбит/сек
    Аудио: MP3, 2 ch, 192 Кбит/сек

    Mediainfo:

    Общее
    Полное имя                               : E:\Несколько историй, случившихся в придорожной харчевне (1992) IPTVRip.avi
    Формат                                   : AVI
    Формат/Информация                        : Audio Video Interleave
    Размер файла                             : 306 Мбайт
    Продолжительность                        : 25 м.
    Общий поток                              : 1705 Кбит/сек
    Программа кодирования                    : Lavf56.15.102
    Видео
    Идентификатор                            : 0
    Формат                                   : xvid
    Идентификатор кодека                     : xvid
    Продолжительность                        : 25 м.
    Битрейт                                  : 1500 Кбит/сек
    Ширина                                   : 640 пикселей
    Высота                                   : 480 пикселей
    Соотношение сторон                       : 4:3
    Частота кадров                           : 25,000 кадров/сек
    Тип развёртки                            : Прогрессивная
    Бит/(Пиксели*Кадры)                      : 0.195
    Размер потока                            : 269 Мбайт (88%)
    Аудио
    Идентификатор                            : 1
    Формат                                   : MPEG Audio
    Версия формата                           : Version 1
    Профиль формата                          : Layer 3
    Режим                                    : Joint stereo
    Расширение режима                        : MS Stereo
    Идентификатор кодека                     : 55
    Идентификатор кодека/Подсказка           : MP3
    Продолжительность                        : 25 м.
    Вид битрейта                             : Постоянный
    Битрейт                                  : 192 Кбит/сек
    Каналы                                   : 2 канала
    Частота                                  : 44,1 КГц
    Метод сжатия                             : С потерями
    Размер потока                            : 34,5 Мбайт (11%)
    Выравнивание                             : Соединение по промежуткам
    Продолжительность промежутка             : 26  мс. (0,65 видеокадр)
    Библиотека кодирования                   : LAME3.98.4
    Скриншоты:
    Время раздачи: С 18:00 до 23:00
    Скачать .torrent

    Скачать торрент-файл бесплатно и на максимальной скорости!

    Как скачивать? · Что такое торрент? · Рейтинг и ограничения

    !ВНИМАНИЕ!
    Сайт не распространяет и не хранит электронные версии произведений, а занимается лишь лишь предоставлением доступа к создаваемому пользователями каталогу ссылок на торрент-файлы, которые содержат только списки хеш-сумм, убедительная просьба с жалобами обращаться напрямую к пользователю. Файлы для обмена на трекере предоставлены пользователями сайта, и администрация не несёт ответственности за их содержание. Просьба не заливать файлы, защищенные авторскими правами, а также файлы нелегального содержания!


    _________________
    [Профиль] [ЛС]
    Показать сообщения:    
    Ответить на тему

    Текущее время: Сегодня, в 16:15

    Часовой пояс: GMT + 2



    Вы не можете начинать темы
    Вы не можете отвечать на сообщения
    Вы не можете редактировать свои сообщения
    Вы не можете удалять свои сообщения
    Вы не можете голосовать в опросах
    Вы не можете прикреплять файлы к сообщениям
    Вы не можете скачивать файлы