BitTorrentTracker PerecTracker.org
BitTorrentTracker PerecTracker.org
    
Регистрация  ·  Вход
 
 · 
Забыли пароль?

  • Легенда о Тиле (1997) WEBRip

    Ответить на тему
     
    Автор Сообщение

    Light

    Создавать темы 21-Сен-2016 12:20

           

    [Цитировать]

    - Легенда о Тиле (1997) WEBRip -Производство: Россия, ГТРК "Санкт-Петербург"
    Жанр: Детский, Сказка
    Режиссер: Анатолий Слясский
    Актеры: Ефим Каменецкий, Геннадий Смирнов, Александр Новиков (III), Иван Краско, Лариса Леонова, Евгений Тиличеев, Александр Семёнов
    Описание:
    Из цикла "Сказка за сказкой".Передача выходила в эфир с 1979 по 1998 год не только в Ленинграде, но и в других российских городах, а также в Польше и Чехословакии. Это были телевизионные постановки сказок народов мира.По мотивам "Легенды о Тиле Уленшпигеле" Шарля де Костера
    Продолжительность: 00:59:40
    Качество видео: WEBRip
    Видео: Xvid, 640x480, ~1493 Кбит/сек
    Аудио: MP3, 1 ch, 128 Кбит/сек

    Mediainfo:

    Общее
    Полное имя                               : E:\Легенда о Тиле (1997) WebRip.avi
    Формат                                   : AVI
    Формат/Информация                        : Audio Video Interleave
    Размер файла                             : 696 Мбайт
    Продолжительность                        : 59 м.
    Общий поток                              : 1631 Кбит/сек
    Библиотека кодирования                   : VirtualDub build 32817/release
    Видео
    Идентификатор                            : 0
    Формат                                   : MPEG-4 Visual
    Профиль формата                          : Advanced Simple@L5
    Параметр BVOP формата                    : 1
    Параметр QPel формата                    : Нет
    Параметр GMC формата                     : Без точки перехода
    Параметр матрицы формата                 : Default (MPEG)
    Идентификатор кодека                     : XVID
    Идентификатор кодека/Подсказка           : XviD
    Продолжительность                        : 59 м.
    Битрейт                                  : 1493 Кбит/сек
    Ширина                                   : 640 пикселей
    Высота                                   : 480 пикселей
    Соотношение сторон                       : 4:3
    Частота кадров                           : 25,000 кадров/сек
    Цветовое пространство                    : YUV
    Субдискретизация насыщенности            : 4:2:0
    Битовая глубина                          : 8 бит
    Тип развёртки                            : Прогрессивная
    Метод сжатия                             : С потерями
    Бит/(Пиксели*Кадры)                      : 0.194
    Размер потока                            : 637 Мбайт (92%)
    Библиотека кодирования                   : XviD 64
    Аудио
    Идентификатор                            : 1
    Формат                                   : MPEG Audio
    Версия формата                           : Version 1
    Профиль формата                          : Layer 3
    Идентификатор кодека                     : 55
    Идентификатор кодека/Подсказка           : MP3
    Продолжительность                        : 59 м.
    Вид битрейта                             : Постоянный
    Битрейт                                  : 128 Кбит/сек
    Каналы                                   : 1 канал
    Частота                                  : 44,1 КГц
    Метод сжатия                             : С потерями
    Размер потока                            : 54,6 Мбайт (8%)
    Выравнивание                             : Разделение по промежуткам
    Продолжительность промежутка             : 40  мс. (1,00 видеокадр)
    Время предзагрузки промежутка            : 500  мс.
    Скриншоты:
    Время раздачи: С 18:00 до 23:00 (до появления первых 3-5 скачавших)
    Скачать .torrent

    Скачать торрент-файл бесплатно и на максимальной скорости!

    Как скачивать? · Что такое торрент? · Рейтинг и ограничения

    !ВНИМАНИЕ!
    Сайт не распространяет и не хранит электронные версии произведений, а занимается лишь лишь предоставлением доступа к создаваемому пользователями каталогу ссылок на торрент-файлы, которые содержат только списки хеш-сумм, убедительная просьба с жалобами обращаться напрямую к пользователю. Файлы для обмена на трекере предоставлены пользователями сайта, и администрация не несёт ответственности за их содержание. Просьба не заливать файлы, защищенные авторскими правами, а также файлы нелегального содержания!


    _________________
    [Профиль] [ЛС]
    Показать сообщения:    
    Ответить на тему

    Текущее время: Сегодня, в 04:30

    Часовой пояс: GMT + 2



    Вы не можете начинать темы
    Вы не можете отвечать на сообщения
    Вы не можете редактировать свои сообщения
    Вы не можете удалять свои сообщения
    Вы не можете голосовать в опросах
    Вы не можете прикреплять файлы к сообщениям
    Вы не можете скачивать файлы