BitTorrentTracker PerecTracker.org
BitTorrentTracker PerecTracker.org
    
Регистрация  ·  Вход
 
 · 
Забыли пароль?

  • Разбудите Леночку (1934) SATRip [H.264]

    Ответить на тему
     
    Автор Сообщение

    Light

    Создавать темы 21-Сен-2016 12:20

           

    [Цитировать]

    - Разбудите Леночку (1934) SATRip [H.264] -Производство: СССР, Ленфильм
    Жанр: Комедия
    Режиссер: Антонина Кудрявцева
    Актеры: Янина Жеймо, Сергей Герасимов...
    Описание:
    Немой фильм о маленькой школьнице, которая вечно опаздывала на уроки, и ее друзьях, придумавших оригинальный способ перевоспитать прогульщицу.

    Релиз от :

    Продолжительность: 00:26:11
    Качество видео: SATRip
    Видео: AVC/H.264, 694x572@740x572, ~2983 kbps
    Аудио: MP2, 2 ch, 192 kbps, CBR

    Mediainfo:

    Общее
    Уникальный идентификатор                 : 195177314762482445587941944617690026562 (0x92D5C8933BF5520FA899EDA89FED5242)
    Полное имя                               : D:\0-TTT\Разбудите Леночку-Sat-MG-NNM.mkv
    Формат                                   : Matroska
    Версия формата                           : Version 4 / Version 2
    Размер файла                             : 595 Мбайт
    Продолжительность                        : 26 м.
    Общий поток                              : 3177 Кбит/сек
    Дата кодирования                         : UTC 2016-02-12 06:26:02
    Программа кодирования                    : mkvmerge v8.8.0 ('Wind at my back') 32bit
    Библиотека кодирования                   : libebml v1.3.3 + libmatroska v1.4.4
    Видео
    Идентификатор                            : 1
    Формат                                   : AVC
    Формат/Информация                        : Advanced Video Codec
    Профиль формата                          : [url=mailto:High@L4.1]High@L4.1[/url]
    Параметр CABAC формата                   : Да
    Параметр ReFrames формата                : 15 кадров
    Идентификатор кодека                     : V_MPEG4/ISO/AVC
    Продолжительность                        : 26 м.
    Битрейт                                  : 2983 Кбит/сек
    Ширина                                   : 694 пикселя
    Высота                                   : 572 пикселя
    Соотношение сторон                       : 1,294
    Режим частоты кадров                     : Постоянный
    Частота кадров                           : 25,000 кадров/сек
    Цветовое пространство                    : YUV
    Субдискретизация насыщенности            : 4:2:0
    Битовая глубина                          : 8 бит
    Тип развёртки                            : Прогрессивная
    Бит/(Пиксели*Кадры)                      : 0.301
    Размер потока                            : 559 Мбайт (94%)
    Заголовок                                : FomaTash for nnmclub.to
    Библиотека кодирования                   : x264 core 146 r2538 121396c
    Настройки программы                      : cabac=1 / ref=15 / deblock=1:-1:-1 / analyse=0x3:0x133 / me=umh / subme=9 / psy=1 / psy_rd=1.00:0.15 / mixed_ref=1 / me_range=32 / chroma_me=1 / trellis=2 / 8x8dct=1 / cqm=0 / deadzone=21,11 / fast_pskip=1 / chroma_qp_offset=-3 / threads=6 / lookahead_threads=1 / sliced_threads=0 / nr=0 / decimate=0 / interlaced=0 / bluray_compat=0 / constrained_intra=0 / bframes=11 / b_pyramid=2 / b_adapt=2 / b_bias=0 / direct=3 / weightb=1 / open_gop=0 / weightp=2 / keyint=240 / keyint_min=23 / scenecut=40 / intra_refresh=0 / rc_lookahead=40 / rc=2pass / mbtree=0 / bitrate=2983 / ratetol=1.0 / qcomp=0.60 / qpmin=10 / qpmax=51 / qpstep=4 / cplxblur=20.0 / qblur=0.5 / vbv_maxrate=50000 / vbv_bufsize=62500 / nal_hrd=none / filler=0 / ip_ratio=1.40 / pb_ratio=1.30 / aq=1:1.00
    Язык                                     : Russian
    Default                                  : Да
    Forced                                   : Нет
    Аудио
    Идентификатор                            : 2
    Формат                                   : MPEG Audio
    Версия формата                           : Version 1
    Профиль формата                          : Layer 2
    Идентификатор кодека                     : A_MPEG/L2
    Идентификатор кодека/Подсказка           : MP2
    Продолжительность                        : 26 м.
    Вид битрейта                             : Постоянный
    Битрейт                                  : 192 Кбит/сек
    Каналы                                   : 2 канала
    Частота                                  : 48,0 КГц
    Частота кадров                           : 41,667 кадра/сек (1152 spf)
    Метод сжатия                             : С потерями
    Размер потока                            : 35,9 Мбайт (6%)
    Заголовок                                : MP2-2 канала
    Язык                                     : Russian
    Default                                  : Да
    Forced                                   : Нет

    x264.log:

    --[Information] [12.02.2016 1:49:00] Standard error stream
    ---[Information] [12.02.2016 1:49:02] raw [info]: 694x572p 92521:86750 @ 25/1 fps (cfr)
    ---[Information] [12.02.2016 1:49:02] x264 [info]: using SAR=9252/8675
    ---[Information] [12.02.2016 1:49:02] x264 [info]: using cpu capabilities: MMX2 SSE2Fast SSSE3 SSE4.2
    ---[Information] [12.02.2016 1:49:02] x264 [info]: profile High, level 4.1
    ---[Information] [12.02.2016 3:11:39] x264 [info]: frame I:228 Avg QP:19.31 size: 33914
    ---[Information] [12.02.2016 3:11:39] x264 [info]: frame P:7645 Avg QP:21.83 size: 20882
    ---[Information] [12.02.2016 3:11:39] x264 [info]: frame B:31409 Avg QP:23.56 size: 13325
    ---[Information] [12.02.2016 3:11:39] x264 [info]: consecutive B-frames: 1.2% 1.6% 5.4% 22.1% 15.5% 23.0% 10.9% 7.0% 4.7% 3.0% 2.5% 2.9%
    ---[Information] [12.02.2016 3:11:39] x264 [info]: mb I I16..4: 3.2% 73.8% 23.0%
    ---[Information] [12.02.2016 3:11:39] x264 [info]: mb P I16..4: 1.6% 31.7% 4.1% P16..4: 36.7% 20.8% 4.8% 0.1% 0.0% skip: 0.2%
    ---[Information] [12.02.2016 3:11:39] x264 [info]: mb B I16..4: 0.4% 6.2% 0.6% B16..8: 44.5% 22.9% 3.4% direct:17.3% skip: 4.7% L0:55.5% L1:39.0% BI: 5.5%
    ---[Information] [12.02.2016 3:11:39] x264 [info]: 8x8 transform intra:85.3% inter:73.2%
    ---[Information] [12.02.2016 3:11:39] x264 [info]: direct mvs spatial:96.2% temporal:3.8%
    ---[Information] [12.02.2016 3:11:39] x264 [info]: coded y,uvDC,uvAC intra: 93.8% 0.0% 0.0% inter: 68.1% 0.0% 0.0%
    ---[Information] [12.02.2016 3:11:39] x264 [info]: i16 v,h,dc,p: 34% 27% 10% 29%
    ---[Information] [12.02.2016 3:11:39] x264 [info]: i8 v,h,dc,ddl,ddr,vr,hd,vl,hu: 11% 9% 5% 8% 13% 14% 14% 12% 15%
    ---[Information] [12.02.2016 3:11:39] x264 [info]: i4 v,h,dc,ddl,ddr,vr,hd,vl,hu: 10% 10% 2% 8% 13% 13% 15% 11% 17%
    ---[Information] [12.02.2016 3:11:39] x264 [info]: i8c dc,h,v,p: 100% 0% 0% 0%
    ---[Information] [12.02.2016 3:11:39] x264 [info]: Weighted P-Frames: Y:55.1% UV:0.0%
    ---[Information] [12.02.2016 3:11:39] x264 [info]: ref P L0: 27.9% 9.2% 13.0% 9.0% 7.1% 6.0% 5.3% 3.7% 3.3% 2.9% 2.7% 2.4% 2.3% 2.2% 2.1% 1.0%
    ---[Information] [12.02.2016 3:11:39] x264 [info]: ref B L0: 48.7% 14.0% 9.0% 5.4% 4.5% 3.9% 3.4% 2.3% 2.1% 1.9% 1.7% 1.6% 1.0% 0.4%
    ---[Information] [12.02.2016 3:11:39] x264 [info]: ref B L1: 86.5% 13.5%
    ---[Information] [12.02.2016 3:11:39] x264 [info]: kb/s:2983.11
    ---[Information] [12.02.2016 3:11:39] encoded 39282 frames, 7.93 fps, 2983.11 kb/s
    Скриншоты:
    !!!Все релизы этого фильма в Клубе!!!Время раздачи: с 23:00 до 5:00 по Москве
    Скачать .torrent

    Скачать торрент-файл бесплатно и на максимальной скорости!

    Как скачивать? · Что такое торрент? · Рейтинг и ограничения

    !ВНИМАНИЕ!
    Сайт не распространяет и не хранит электронные версии произведений, а занимается лишь лишь предоставлением доступа к создаваемому пользователями каталогу ссылок на торрент-файлы, которые содержат только списки хеш-сумм, убедительная просьба с жалобами обращаться напрямую к пользователю. Файлы для обмена на трекере предоставлены пользователями сайта, и администрация не несёт ответственности за их содержание. Просьба не заливать файлы, защищенные авторскими правами, а также файлы нелегального содержания!


    _________________
    [Профиль] [ЛС]
    Показать сообщения:    
    Ответить на тему

    Текущее время: Сегодня, в 04:17

    Часовой пояс: GMT + 2



    Вы не можете начинать темы
    Вы не можете отвечать на сообщения
    Вы не можете редактировать свои сообщения
    Вы не можете удалять свои сообщения
    Вы не можете голосовать в опросах
    Вы не можете прикреплять файлы к сообщениям
    Вы не можете скачивать файлы