BitTorrentTracker PerecTracker.org
BitTorrentTracker PerecTracker.org
    
Регистрация  ·  Вход
 
 · 
Забыли пароль?

  • Мэри Поппинс, до свидания (1983) DVDRip (серии 1-2 из 2)

    Ответить на тему
     
    Автор Сообщение

    Light

    Создавать темы 21-Сен-2016 12:20

           

    [Цитировать]

    - Мэри Поппинс, до свидания (1983) DVDRip -Производство: СССР, Мосфильм
    Жанр: Семейный, Музыкальный, Сказка
    Режиссер: Леонид Квинихидзе
    Актеры: Наталья Андрейченко, Татьяна Воронина, Филипп Рукавишников, Лариса Удовиченко, Олег Табаков, Зиновий Гердт, Альберт Филозов, Анна Плисецкая, Лембит Ульфсак, Ирина Скобцева
    Описание:
    Фантастическая история, некогда рассказанная П.Трэверс и заново изложенная в наши дни. Семейство Бенкс озабоченно поисками няни для своих детей. И как это бывает только в сказке, она появилась прямо из воздуха, прекрасная, ни на кого не похожая. Как раз такая, какую мечтали бы иметь в своем доме всякие любящие родители.
    Мэри Поппинс в исполнении Натальи Андрейченко – мисс Совершенство. Нельзя не упомянуть и блестящую шуточную работу Олега Табакова, который отдает дань веселой традиции актеров-мужчин: поиграть в переодевание, сыграть даму. Даже совсем небольшая, меньше эпизода, роль Зиновия Гердта – целая отдельная линия в сюжете, со своей моралью и добрым юмором.
    Можно смотреть в семейном кругу, а можно – и без взрослых.

    Продолжительность: 01:03:06 + 01:14:41
    Качество видео: DVDRip
    Видео: Xvid, 720x512 (1.406), ~2641 kbps, 25 fps
    Аудио: AC3, 6 ch, 448 Kbps, CBR

    Mediainfo:

    General
    Complete name                            : G:\Download_G\Мэри Поппинс, до свидания!\Мэри Поппинс, до свидания(1).avi
    Format                                   : AVI
    Format/Info                              : Audio Video Interleave
    File size                                : 1.37 GiB
    Duration                                 : 1h 3mn
    Overall bit rate                         : 3 099 Kbps
    Writing application                      : FairUse Wizard - http://fairusewizard.com
    Writing library                          : The best and REALLY easy backup tool
    Video
    ID                                       : 0
    Format                                   : MPEG-4 Visual
    Format profile                           : Advanced Simple@L5
    Format settings, BVOP                    : 2
    Format settings, QPel                    : No
    Format settings, GMC                     : No warppoints
    Format settings, Matrix                  : Default (MPEG)
    Codec ID                                 : XVID
    Codec ID/Hint                            : XviD
    Duration                                 : 1h 3mn
    Bit rate                                 : 2 641 Kbps
    Width                                    : 720 pixels
    Height                                   : 512 pixels
    Display aspect ratio                     : 1.406
    Frame rate                               : 25.000 fps
    Color space                              : YUV
    Chroma subsampling                       : 4:2:0
    Bit depth                                : 8 bits
    Scan type                                : Progressive
    Compression mode                         : Lossy
    Bits/(Pixel*Frame)                       : 0.287
    Stream size                              : 1.16 GiB (85%)
    Writing library                          : XviD 1.1.0 Beta2 (UTC 2005-04-04)
    Audio
    ID                                       : 1
    Format                                   : AC-3
    Format/Info                              : Audio Coding 3
    Mode extension                           : CM (complete main)
    Format settings, Endianness              : Big
    Codec ID                                 : 2000
    Duration                                 : 1h 3mn
    Bit rate mode                            : Constant
    Bit rate                                 : 448 Kbps
    Channel(s)                               : 6 channels
    Channel positions                        : Front: L C R, Side: L R, LFE
    Sampling rate                            : 48.0 KHz
    Compression mode                         : Lossy
    Stream size                              : 202 MiB (14%)
    Alignment                                : Split accross interleaves
    Interleave, duration                     : 40 ms (1.00 video frame)
    Interleave, preload duration             : 500 ms

    Дополнительная информация:

    Страна: СССP
    Сценарий: Владимир Валуцкий, Памела Линдон Трэверс
    Оператор: Валентин Пиганов
    Композитор: Максим Дунаевский
    За Наталью Андрейченко пела Татьяна Воронина, а за Лембита Ульфсака - Павел Смеян.
    Дядя Анны Плисецкой (Джейн), Азарий Плисецкий, ставил для фильма танцы. Когда девочку привели на пробы, и режиссер спросил: «С кем хочешь играть?», она указала на Филиппа Рукавишникова (Майкл) и в итоге исполнила роль его экранной сестры.
    Музыкальный материал к фильму записали музыканты группы «Воскресение»: Вадим Голутвин (гитара), Петр Подгородецкий (клавишные), Владимир Воронин (барабаны).
    В двух эпизодах фильма из магнитофона Майкла звучит знаменитый хит Роберта Палмера «Looking for Clues» (1980). Эта песня также эпизодически звучит в американском фильме-ужасов «Возвращение живых мертвецов — 2».
    В комнате Робертсона, когда он поёт песню «33 коровы», на стене можно заметить постер французского фильма «Invitation au voyage». Это фильм 1982 года о певице, погибшей от электричества в ванне с молоком; это молоко её любовник/брат-близнец потом перелил в бутылки и пил весь фильм, превращаясь в погибшую.
    Несмотря на оглушительный успех, актерская карьера не привлекла Анну Плисецкую и Филиппа Рукавишникова. Они пошли по стопам родителей - Анна стала балериной, Филипп - архитектором.
    Леонид Квинихидзе признавался в интервью, что он снимал вовсе не детский фильм — это была сказка, но сказка для взрослых. То, что фильм очень понравился детям, было неожиданно для него самого.
    Скриншоты:

    Дополнительные скриншоты:

    Скачать .torrent

    Скачать торрент-файл бесплатно и на максимальной скорости!

    Как скачивать? · Что такое торрент? · Рейтинг и ограничения

    !ВНИМАНИЕ!
    Сайт не распространяет и не хранит электронные версии произведений, а занимается лишь лишь предоставлением доступа к создаваемому пользователями каталогу ссылок на торрент-файлы, которые содержат только списки хеш-сумм, убедительная просьба с жалобами обращаться напрямую к пользователю. Файлы для обмена на трекере предоставлены пользователями сайта, и администрация не несёт ответственности за их содержание. Просьба не заливать файлы, защищенные авторскими правами, а также файлы нелегального содержания!


    _________________
    [Профиль] [ЛС]
    Показать сообщения:    
    Ответить на тему

    Текущее время: Сегодня, в 14:32

    Часовой пояс: GMT + 2



    Вы не можете начинать темы
    Вы не можете отвечать на сообщения
    Вы не можете редактировать свои сообщения
    Вы не можете удалять свои сообщения
    Вы не можете голосовать в опросах
    Вы не можете прикреплять файлы к сообщениям
    Вы не можете скачивать файлы