BitTorrentTracker PerecTracker.org
BitTorrentTracker PerecTracker.org
    
Регистрация  ·  Вход
 
 · 
Забыли пароль?

  • Королевство кривых зеркал (1963) BDRip [H.264/1080p]

    Ответить на тему
     
    Автор Сообщение

    Light

    Создавать темы 21-Сен-2016 12:20

           

    [Цитировать]

    - Королевство кривых зеркал (1963) BDRip [H.264/1080p]-Производство: СССР, Киностудия им. М.Горького
    Жанр: Сказка, Семейный, Фэнтези
    Режиссер: Александр Роу
    Актеры: Ольга Юкина, Татьяна Юкина, Татьяна Барышева, Анатолий Кубацкий, Андрей Файт, Лидия Вертинская, Аркадий Цинман, Андрей Стапран, Иван Кузнецов, Георгий Милляр
    Описание:
    Однажды школьница Оля взглянула в самое обычное зеркало, которое висело дома в прихожей, и неожиданно отправилась путешествовать в волшебную зазеркальную страну вместе со своим отражением - озорной девочкой Яло.
    Королевство Кривых Зеркал — сказочное королевство зазеркалья. Имена жителей королевства обычно — зеркальные отражения имён нарицательных. Основная политика Королевства — изготовление кривых зеркал, в которых уродливые кажутся красивыми, молодые — старыми и так далее. Довольные такой политикой граждане (злые, лживые и т. п.) предпочитают верить зеркалам, а не своим глазам. Единственное прямое зеркало в Королевстве есть только у короля. Недовольные такой политикой — слуги, рабы, беднота — мечтают о смене политического строя. Один юный зеркальщик, Гурд, отказался делать кривые зеркала, за что его приговорили к казни и заточили в Башню Смерти...
    Исходник: Королевство кривых зеркал (1963) [1080i] Blu-ray

    Продолжительность: 01:14:58
    Качество видео: BDRip 1080p
    Видео: AVC/H.264, 1920x1080 (16:9), ~9 786 Kbps, 25 fps
    Аудио: AC3, 6 ch, 448 kbps, 48 kHz, VBR

    Mediainfo:

    General
    Unique ID                                : 42667679403385220795924488285283152793 (0x20197F032A5463ABF08C8C64C15BF399)
    Complete name                            : G:\Download_G\Korolevstvo_krivih_zerkal_1080p.mkv
    Format                                   : Matroska
    Format version                           : Version 2
    File size                                : 5.47 GiB
    Duration                                 : 1h 14mn
    Overall bit rate                         : 10.4 Mbps
    Writing application                      : Lavf55.7.100
    Writing library                          : Lavf55.7.100
    LABEL                                    : Chapter 1
    TCHAPTER                                 : 91776928
    Language                                 : eng
    Video
    ID                                       : 1
    Format                                   : AVC
    Format/Info                              : Advanced Video Codec
    Format profile                           : High@L4
    Format settings, CABAC                   : Yes
    Format settings, ReFrames                : 3 frames
    Codec ID                                 : V_MPEG4/ISO/AVC
    Duration                                 : 1h 14mn
    Bit rate                                 : 9 786 Kbps
    Width                                    : 1 920 pixels
    Height                                   : 1 080 pixels
    Display aspect ratio                     : 16:9
    Frame rate mode                          : Constant
    Frame rate                               : 25.000 fps
    Standard                                 : PAL
    Color space                              : YUV
    Chroma subsampling                       : 4:2:0
    Bit depth                                : 8 bits
    Scan type                                : Progressive
    Bits/(Pixel*Frame)                       : 0.189
    Stream size                              : 5.13 GiB (94%)
    Title                                    : Main video
    Language                                 : English
    Default                                  : Yes
    Forced                                   : No
    Encoded date                             : UTC 2016-02-18 21:59:02
    Color range                              : Limited
    Color primaries                          : BT.709
    Transfer characteristics                 : BT.709
    Matrix coefficients                      : BT.709
    HANDLER_NAME                             : Mainconcept MP4 Video Media Handler
    PART_NUMBER                              : 0
    Audio
    ID                                       : 2
    Format                                   : AC-3
    Format/Info                              : Audio Coding 3
    Mode extension                           : CM (complete main)
    Format settings, Endianness              : Big
    Codec ID                                 : A_AC3
    Duration                                 : 1h 14mn
    Bit rate mode                            : Constant
    Bit rate                                 : 448 Kbps
    Channel(s)                               : 6 channels
    Channel positions                        : Front: L C R, Side: L R, LFE
    Sampling rate                            : 48.0 KHz
    Bit depth                                : 32 bits
    Compression mode                         : Lossy
    Delay relative to video                  : 24ms
    Stream size                              : 240 MiB (4%)
    Title                                    : Russian
    Language                                 : Russian
    Default                                  : No
    Forced                                   : No
    PART_NUMBER                              : 1
    Menu
    00:00:00.000                             : :Chapter 1

    Дополнительная информация:

    Исполнительницы главных ролей Оля и Таня Юкины попали в этот фильм случайно. За лето съемок они получили 80 рублей, бесплатный проезд из Москвы до Крыма и обратно, бесплатное питание.
    Скриншоты:

    Дополнительные скриншоты:

    Все релизы «Королевство кривых зеркал»Время раздачи: С 23-00 до 07-00 (до появления первых 3-5 скачавших)
    Скачать .torrent

    Скачать торрент-файл бесплатно и на максимальной скорости!

    Как скачивать? · Что такое торрент? · Рейтинг и ограничения

    !ВНИМАНИЕ!
    Сайт не распространяет и не хранит электронные версии произведений, а занимается лишь лишь предоставлением доступа к создаваемому пользователями каталогу ссылок на торрент-файлы, которые содержат только списки хеш-сумм, убедительная просьба с жалобами обращаться напрямую к пользователю. Файлы для обмена на трекере предоставлены пользователями сайта, и администрация не несёт ответственности за их содержание. Просьба не заливать файлы, защищенные авторскими правами, а также файлы нелегального содержания!


    _________________
    [Профиль] [ЛС]
    Показать сообщения:    
    Ответить на тему

    Текущее время: Сегодня, в 04:19

    Часовой пояс: GMT + 2



    Вы не можете начинать темы
    Вы не можете отвечать на сообщения
    Вы не можете редактировать свои сообщения
    Вы не можете удалять свои сообщения
    Вы не можете голосовать в опросах
    Вы не можете прикреплять файлы к сообщениям
    Вы не можете скачивать файлы