BitTorrentTracker PerecTracker.org
BitTorrentTracker PerecTracker.org
    
Регистрация  ·  Вход
 
 · 
Забыли пароль?

  • Полонез Огинского (1971) DVDRip [H.264]

    Ответить на тему
     
    Автор Сообщение

    Light

    Создавать темы 21-Сен-2016 12:20

           

    [Цитировать]

    - Полонез Огинского (1971) DVDRip [H.264]-Производство: СССР, Белорусьфильм
    Жанр: Военный, Драма
    Режиссер: Лев Голуб
    Актеры: Илья Цуккер, Геннадий Гарбук, Павел Кормунин, Геннадий Юхтин, Олев Эскола, Леонид Крюк, Игорь Варпа
    Описание:
    Повесть военных лет. Осиротевший маленький скрипач вместе со своим старшим другом проводят одну за другой серьезные операции в тылу врага.

    Продолжительность: 01:23:29
    Качество видео: DVDRip
    Видео: AVC/H.264, 692x290@740x290, ~1550 Кбит/сек
    Аудио: AC3, 2 ch, 192 Кбит/сек

    Mediainfo:

    Общее
    Уникальный идентификатор                 : 226779413996372509478487515635372120647 (0xAA9C205CF88011F8B9D2A37D31A5DA47)
    Полное имя                               : Z:\Полонез Огинского (1971) SATRip.mkv
    Формат                                   : Matroska
    Версия формата                           : Version 4 / Version 2
    Размер файла                             : 1,02 Гбайт
    Продолжительность                        : 1 ч. 23 м.
    Режим общего битрейта                    : Переменный
    Общий поток                              : 1744 Кбит/сек
    Дата кодирования                         : UTC 2015-02-21 13:38:02
    Программа кодирования                    : mkvmerge v7.6.0 ('Garden of Dreams') 64bit built on Feb  8 2015 13:04:34
    Библиотека кодирования                   : libebml v1.3.1 + libmatroska v1.4.2
    Видео
    Идентификатор                            : 1
    Формат                                   : AVC
    Формат/Информация                        : Advanced Video Codec
    Профиль формата                          : [url=mailto:Main@L3.1]Main@L3.1[/url]
    Параметр CABAC формата                   : Да
    Параметр ReFrames формата                : 2 кадра
    Идентификатор кодека                     : V_MPEG4/ISO/AVC
    Продолжительность                        : 1 ч. 23 м.
    Вид битрейта                             : Переменный
    Битрейт                                  : 1550 Кбит/сек
    Максимальный битрейт                     : 14,0 Мбит/сек
    Ширина                                   : 692 пикселя
    Высота                                   : 290 пикселей
    Соотношение сторон                       : 2,552
    Режим частоты кадров                     : Постоянный
    Частота кадров                           : 25,000 кадров/сек
    Цветовое пространство                    : YUV
    Субдискретизация насыщенности            : 4:2:0
    Битовая глубина                          : 8 бит
    Тип развёртки                            : Прогрессивная
    Бит/(Пиксели*Кадры)                      : 0.309
    Размер потока                            : 925 Мбайт (89%)
    Язык                                     : Russian
    Default                                  : Да
    Forced                                   : Нет
    Аудио
    Идентификатор                            : 2
    Формат                                   : AC-3
    Формат/Информация                        : Audio Coding 3
    Расширение режима                        : CM (complete main)
    Параметр Endianness формата              : Big
    Идентификатор кодека                     : A_AC3
    Продолжительность                        : 1 ч. 23 м.
    Вид битрейта                             : Постоянный
    Битрейт                                  : 192 Кбит/сек
    Каналы                                   : 2 канала
    Расположение каналов                     : Front: L R
    Частота                                  : 48,0 КГц
    Частота кадров                           : 31,250 кадров/сек (1536 spf)
    Метод сжатия                             : С потерями
    Размер потока                            : 115 Мбайт (11%)
    Язык                                     : Russian
    Default                                  : Да
    Forced                                   : Нет
    Скриншоты:

    Дополнительные скриншоты:


    Время раздачи: С 18:00 до 23:00 (до появления первых 3-5 скачавших)
    Все релизы "Полонез Огинского (1971)" на NNM-CLUB
    Скачать .torrent

    Скачать торрент-файл бесплатно и на максимальной скорости!

    Как скачивать? · Что такое торрент? · Рейтинг и ограничения

    !ВНИМАНИЕ!
    Сайт не распространяет и не хранит электронные версии произведений, а занимается лишь лишь предоставлением доступа к создаваемому пользователями каталогу ссылок на торрент-файлы, которые содержат только списки хеш-сумм, убедительная просьба с жалобами обращаться напрямую к пользователю. Файлы для обмена на трекере предоставлены пользователями сайта, и администрация не несёт ответственности за их содержание. Просьба не заливать файлы, защищенные авторскими правами, а также файлы нелегального содержания!


    _________________
    [Профиль] [ЛС]
    Показать сообщения:    
    Ответить на тему

    Текущее время: Сегодня, в 04:18

    Часовой пояс: GMT + 2



    Вы не можете начинать темы
    Вы не можете отвечать на сообщения
    Вы не можете редактировать свои сообщения
    Вы не можете удалять свои сообщения
    Вы не можете голосовать в опросах
    Вы не можете прикреплять файлы к сообщениям
    Вы не можете скачивать файлы