BitTorrentTracker PerecTracker.org
BitTorrentTracker PerecTracker.org
    
Регистрация  ·  Вход
 
 · 
Забыли пароль?

  • Сказка о Мальчише-Кибальчише (1964) DVDRip [H.264]

    Ответить на тему
     
    Автор Сообщение

    Light

    Создавать темы 21-Сен-2016 12:20

           

    [Цитировать]

    - Сказка о Мальчише-Кибальчише (1964) DVDRip -Производство: СССР, К/ст им.Довженко
    Жанр: Героическая сказка
    Режиссер: Евгений Шерстобитов
    Актеры: Сережа Остапенко, Сергей Тихонов (II), Анатолий Юрченко, Сергей Мартинсон, Леонид Галлис, Дмитрий Капка, Рафик Сабиров, Шурик Харитонов, Володя Квятко, Вася Талько, Коля Костенко, Юра Кузнецов (V), Юрий Лавров, Пётр Соболевский, Петр Кирюткин, Альфред Шестопалов, Владимир Кисленко, Сергей Сибель, Александр Толстых, Витольд Янпавлис, Лев Перфилов, Виктор Полищук, Анатолий Гриневич, Виталиюс Пуоджюкайтис, Герман Апитин...
    Описание:
    Нам бы только день простоять, да ночь продержаться!
    Через некоторое время после одной разрушительной войны, на страну снова напали буржуины из-за Чёрных Гор. После того, как на войну ушли отец и старший брат Мальчиша-Кибальчиша, в деревне остались одни мальчиши. И когда боец Красной Армии в очередной раз прибыл за подмогой, но никого не нашёл, кроме дряхлого старика, тогда поднял Мальчиш-Кибальчиш своих товарищей-мальчишей и повёл их на войну.

    Релиз от :

    Продолжительность: 01:11:32
    Качество видео: DVDRip
    Видео: AVC/H.264, 686x576@732x576, ~4482 kbps
    Аудио: AC3, 2 ch, 192 kbps, CBR

    Mediainfo:

    Общее
    Уникальный идентификатор                 : 204563606376796808132436349050037225179 (0x99E5847B3A0F38D19E039AE6021C46DB)
    Полное имя                               : D:\0-TTT\Сказка о Мальчише-Кибальчише-DVDRip-MG-NNM.mkv
    Формат                                   : Matroska
    Версия формата                           : Version 4 / Version 2
    Размер файла                             : 2,34 Гбайт
    Продолжительность                        : 1 ч. 11 м.
    Общий поток                              : 4676 Кбит/сек
    Дата кодирования                         : UTC 2016-02-20 06:37:56
    Программа кодирования                    : mkvmerge v8.8.0 ('Wind at my back') 64bit
    Библиотека кодирования                   : libebml v1.3.3 + libmatroska v1.4.4
    Видео
    Идентификатор                            : 1
    Формат                                   : AVC
    Формат/Информация                        : Advanced Video Codec
    Профиль формата                          : [url=mailto:High@L4.1]High@L4.1[/url]
    Параметр CABAC формата                   : Да
    Параметр ReFrames формата                : 13 кадров
    Идентификатор кодека                     : V_MPEG4/ISO/AVC
    Продолжительность                        : 1 ч. 11 м.
    Битрейт                                  : 4482 Кбит/сек
    Ширина                                   : 686 пикселей
    Высота                                   : 576 пикселей
    Соотношение сторон                       : 1,271
    Соотношение сторон в оригинале           : 1,270
    Режим частоты кадров                     : Постоянный
    Частота кадров                           : 25,000 кадров/сек
    Цветовое пространство                    : YUV
    Субдискретизация насыщенности            : 4:2:0
    Битовая глубина                          : 8 бит
    Тип развёртки                            : Прогрессивная
    Бит/(Пиксели*Кадры)                      : 0.454
    Размер потока                            : 2,24 Гбайт (96%)
    Заголовок                                : FomaTash for nnmclub.to
    Библиотека кодирования                   : x264 core 146 r2538 121396c
    Настройки программы                      : cabac=1 / ref=13 / deblock=1:-1:-1 / analyse=0x3:0x133 / me=umh / subme=9 / psy=1 / psy_rd=1.00:0.15 / mixed_ref=1 / me_range=32 / chroma_me=1 / trellis=2 / 8x8dct=1 / cqm=0 / deadzone=21,11 / fast_pskip=1 / chroma_qp_offset=-3 / threads=6 / lookahead_threads=1 / sliced_threads=0 / nr=0 / decimate=0 / interlaced=0 / bluray_compat=0 / constrained_intra=0 / bframes=8 / b_pyramid=2 / b_adapt=2 / b_bias=0 / direct=3 / weightb=1 / open_gop=0 / weightp=2 / keyint=240 / keyint_min=23 / scenecut=40 / intra_refresh=0 / rc_lookahead=40 / rc=2pass / mbtree=0 / bitrate=4482 / ratetol=1.0 / qcomp=0.60 / qpmin=10 / qpmax=51 / qpstep=4 / cplxblur=20.0 / qblur=0.5 / vbv_maxrate=50000 / vbv_bufsize=62500 / nal_hrd=none / filler=0 / ip_ratio=1.40 / pb_ratio=1.30 / aq=1:1.00
    Язык                                     : Russian
    Default                                  : Да
    Forced                                   : Нет
    Аудио
    Идентификатор                            : 2
    Формат                                   : AC-3
    Формат/Информация                        : Audio Coding 3
    Расширение режима                        : CM (complete main)
    Параметр Endianness формата              : Big
    Идентификатор кодека                     : A_AC3
    Продолжительность                        : 1 ч. 11 м.
    Вид битрейта                             : Постоянный
    Битрейт                                  : 192 Кбит/сек
    Каналы                                   : 2 канала
    Расположение каналов                     : Front: L R
    Частота                                  : 48,0 КГц
    Частота кадров                           : 31,250 кадров/сек (1536 spf)
    Метод сжатия                             : С потерями
    Размер потока                            : 98,3 Мбайт (4%)
    Заголовок                                : AC3-2 канала
    Язык                                     : Russian
    Default                                  : Да
    Forced                                   : Нет

    x264.log:

    --[Information] [20.02.2016 7:45:09] Standard error stream
    ---[Information] [20.02.2016 7:45:14] raw [info]: 686x576p 9144:8575 @ 25/1 fps (cfr)
    ---[Information] [20.02.2016 7:45:14] x264 [info]: using SAR=9144/8575
    ---[Information] [20.02.2016 7:45:14] x264 [info]: using cpu capabilities: MMX2 SSE2Fast SSSE3 SSE4.2
    ---[Information] [20.02.2016 7:45:14] x264 [info]: profile High, level 4.1
    ---[Information] [20.02.2016 10:56:03] x264 [info]: frame I:679 Avg QP:20.56 size: 65766
    ---[Information] [20.02.2016 10:56:03] x264 [info]: frame P:23113 Avg QP:22.75 size: 35331
    ---[Information] [20.02.2016 10:56:03] x264 [info]: frame B:83526 Avg QP:24.95 size: 18482
    ---[Information] [20.02.2016 10:56:03] x264 [info]: consecutive B-frames: 2.1% 2.9% 7.1% 18.7% 15.0% 41.4% 6.7% 3.0% 3.1%
    ---[Information] [20.02.2016 10:56:03] x264 [info]: mb I I16..4: 20.5% 47.0% 32.5%
    ---[Information] [20.02.2016 10:56:03] x264 [info]: mb P I16..4: 8.2% 22.2% 4.3% P16..4: 33.8% 21.1% 9.0% 0.7% 0.1% skip: 0.6%
    ---[Information] [20.02.2016 10:56:03] x264 [info]: mb B I16..4: 1.3% 4.4% 0.5% B16..8: 41.4% 14.7% 3.7% direct:21.8% skip:12.1% L0:42.4% L1:34.7% BI:22.9%
    ---[Information] [20.02.2016 10:56:03] x264 [info]: 8x8 transform intra:65.5% inter:42.9%
    ---[Information] [20.02.2016 10:56:03] x264 [info]: direct mvs spatial:94.0% temporal:6.0%
    ---[Information] [20.02.2016 10:56:03] x264 [info]: coded y,uvDC,uvAC intra: 79.3% 83.7% 51.7% inter: 60.0% 46.8% 9.5%
    ---[Information] [20.02.2016 10:56:03] x264 [info]: i16 v,h,dc,p: 70% 8% 13% 10%
    ---[Information] [20.02.2016 10:56:03] x264 [info]: i8 v,h,dc,ddl,ddr,vr,hd,vl,hu: 7% 8% 11% 9% 13% 11% 14% 11% 16%
    ---[Information] [20.02.2016 10:56:03] x264 [info]: i4 v,h,dc,ddl,ddr,vr,hd,vl,hu: 9% 8% 6% 9% 13% 14% 13% 12% 16%
    ---[Information] [20.02.2016 10:56:03] x264 [info]: i8c dc,h,v,p: 34% 37% 18% 11%
    ---[Information] [20.02.2016 10:56:03] x264 [info]: Weighted P-Frames: Y:31.5% UV:17.8%
    ---[Information] [20.02.2016 10:56:03] x264 [info]: ref P L0: 31.4% 9.7% 14.3% 9.4% 7.1% 5.9% 4.8% 3.4% 3.0% 2.8% 2.5% 2.3% 2.2% 1.1% 0.0%
    ---[Information] [20.02.2016 10:56:03] x264 [info]: ref B L0: 66.8% 11.8% 5.6% 3.6% 2.7% 2.4% 2.0% 1.4% 1.3% 1.2% 0.7% 0.4%
    ---[Information] [20.02.2016 10:56:03] x264 [info]: ref B L1: 92.8% 7.2%
    ---[Information] [20.02.2016 10:56:03] x264 [info]: kb/s:4482.07
    ---[Information] [20.02.2016 10:56:03] encoded 107318 frames, 9.37 fps, 4482.07 kb/s
    Скриншоты:
    !!!Все релизы этого фильма в Клубе!!!Время раздачи: с 23:00 до 5:00 по Москве
    Скачать .torrent

    Скачать торрент-файл бесплатно и на максимальной скорости!

    Как скачивать? · Что такое торрент? · Рейтинг и ограничения

    !ВНИМАНИЕ!
    Сайт не распространяет и не хранит электронные версии произведений, а занимается лишь лишь предоставлением доступа к создаваемому пользователями каталогу ссылок на торрент-файлы, которые содержат только списки хеш-сумм, убедительная просьба с жалобами обращаться напрямую к пользователю. Файлы для обмена на трекере предоставлены пользователями сайта, и администрация не несёт ответственности за их содержание. Просьба не заливать файлы, защищенные авторскими правами, а также файлы нелегального содержания!


    _________________
    [Профиль] [ЛС]
    Показать сообщения:    
    Ответить на тему

    Текущее время: Сегодня, в 11:49

    Часовой пояс: GMT + 2



    Вы не можете начинать темы
    Вы не можете отвечать на сообщения
    Вы не можете редактировать свои сообщения
    Вы не можете удалять свои сообщения
    Вы не можете голосовать в опросах
    Вы не можете прикреплять файлы к сообщениям
    Вы не можете скачивать файлы