BitTorrentTracker PerecTracker.org
BitTorrentTracker PerecTracker.org
    
Регистрация  ·  Вход
 
 · 
Забыли пароль?

  • По щучьему веленью (1938) SATRip [H.264]

    Ответить на тему
     
    Автор Сообщение

    Light

    Создавать темы 21-Сен-2016 12:20

           

    [Цитировать]

    - По щучьему веленью (1938) SATRip -Производство: СССР, Союздетфильм
    Жанр: Детский, сказка, экранизация
    Режиссер: Александр Роу
    Актеры: Пётр Савин, Мария Кравчуновская, Георгий Милляр, Софья Терентьева, Лев Потёмкин, Иван Москвин, Александр Жуков, Андрей Файт, Татьяна Струкова, Лидия Рюмина...
    Описание:
    По одноименной пьесе Елизаветы Тараховской, в основе сюжета которой четыре русские народные сказки: "По щучьему велению", "Царевна Несмеяна", "Плясовая гармонь", "Емеля-дурачок". В роли царя Гороха дебютировал Георгий Милляр, "заслуженная Баба-Яга Советского Союза".

    Релиз от :

    Продолжительность: 00:55:59
    Качество видео: SATRip
    Видео: AVC/H.264, 688x572@734x572, ~3289 kbps
    Аудио: MP2, 2 ch, 192 kbps, CBR

    Mediainfo:

    Общее
    Уникальный идентификатор                 : 237399142542016767162426929301929288286 (0xB2996967C00CF60394F77198D85B625E)
    Полное имя                               : D:\0-TTT\По щучьему велению-Sat-MG-NNM.mkv
    Формат                                   : Matroska
    Версия формата                           : Version 4 / Version 2
    Размер файла                             : 1,36 Гбайт
    Продолжительность                        : 55 м.
    Общий поток                              : 3483 Кбит/сек
    Дата кодирования                         : UTC 2016-02-16 09:10:52
    Программа кодирования                    : mkvmerge v8.8.0 ('Wind at my back') 32bit
    Библиотека кодирования                   : libebml v1.3.3 + libmatroska v1.4.4
    Видео
    Идентификатор                            : 1
    Формат                                   : AVC
    Формат/Информация                        : Advanced Video Codec
    Профиль формата                          : [url=mailto:High@L4.1]High@L4.1[/url]
    Параметр CABAC формата                   : Да
    Параметр ReFrames формата                : 13 кадров
    Идентификатор кодека                     : V_MPEG4/ISO/AVC
    Продолжительность                        : 55 м.
    Битрейт                                  : 3289 Кбит/сек
    Ширина                                   : 688 пикселей
    Высота                                   : 572 пикселя
    Соотношение сторон                       : 1,283
    Режим частоты кадров                     : Постоянный
    Частота кадров                           : 25,000 кадров/сек
    Цветовое пространство                    : YUV
    Субдискретизация насыщенности            : 4:2:0
    Битовая глубина                          : 8 бит
    Тип развёртки                            : Прогрессивная
    Бит/(Пиксели*Кадры)                      : 0.334
    Размер потока                            : 1,29 Гбайт (94%)
    Заголовок                                : FomaTash for nnmclub.to
    Библиотека кодирования                   : x264 core 146 r2538 121396c
    Настройки программы                      : cabac=1 / ref=13 / deblock=1:-1:-1 / analyse=0x3:0x133 / me=umh / subme=9 / psy=1 / psy_rd=1.00:0.15 / mixed_ref=1 / me_range=32 / chroma_me=1 / trellis=2 / 8x8dct=1 / cqm=0 / deadzone=21,11 / fast_pskip=1 / chroma_qp_offset=-3 / threads=6 / lookahead_threads=1 / sliced_threads=0 / nr=0 / decimate=0 / interlaced=0 / bluray_compat=0 / constrained_intra=0 / bframes=12 / b_pyramid=2 / b_adapt=2 / b_bias=0 / direct=3 / weightb=1 / open_gop=0 / weightp=2 / keyint=240 / keyint_min=23 / scenecut=40 / intra_refresh=0 / rc_lookahead=40 / rc=2pass / mbtree=0 / bitrate=3289 / ratetol=1.0 / qcomp=0.60 / qpmin=10 / qpmax=51 / qpstep=4 / cplxblur=20.0 / qblur=0.5 / vbv_maxrate=50000 / vbv_bufsize=62500 / nal_hrd=none / filler=0 / ip_ratio=1.40 / pb_ratio=1.30 / aq=1:1.00
    Язык                                     : Russian
    Default                                  : Да
    Forced                                   : Нет
    Аудио
    Идентификатор                            : 2
    Формат                                   : MPEG Audio
    Версия формата                           : Version 1
    Профиль формата                          : Layer 2
    Идентификатор кодека                     : A_MPEG/L2
    Идентификатор кодека/Подсказка           : MP2
    Продолжительность                        : 55 м.
    Вид битрейта                             : Постоянный
    Битрейт                                  : 192 Кбит/сек
    Каналы                                   : 2 канала
    Частота                                  : 48,0 КГц
    Частота кадров                           : 41,667 кадра/сек (1152 spf)
    Метод сжатия                             : С потерями
    Размер потока                            : 76,9 Мбайт (6%)
    Заголовок                                : MP2-2 канала
    Язык                                     : Russian
    Default                                  : Да
    Forced                                   : Нет

    x264.log:

    --[Information] [16.02.2016 2:19:39] Standard error stream
    ---[Information] [16.02.2016 2:19:43] raw [info]: 688x572p 99597:93371 @ 25/1 fps (cfr)
    ---[Information] [16.02.2016 2:19:43] x264 [info]: using SAR=49798/46685
    ---[Information] [16.02.2016 2:19:43] x264 [info]: using cpu capabilities: MMX2 SSE2Fast SSSE3 SSE4.2
    ---[Information] [16.02.2016 2:19:43] x264 [info]: profile High, level 4.1
    ---[Information] [16.02.2016 4:30:02] x264 [info]: frame I:523 Avg QP:21.32 size: 46114
    ---[Information] [16.02.2016 4:30:02] x264 [info]: frame P:15479 Avg QP:23.61 size: 24936
    ---[Information] [16.02.2016 4:30:02] x264 [info]: frame B:67996 Avg QP:25.50 size: 14286
    ---[Information] [16.02.2016 4:30:02] x264 [info]: consecutive B-frames: 1.1% 1.0% 3.5% 18.5% 14.4% 27.9% 11.1% 10.2% 5.6% 3.3% 1.6% 1.1% 0.5%
    ---[Information] [16.02.2016 4:30:02] x264 [info]: mb I I16..4: 1.0% 80.5% 18.5%
    ---[Information] [16.02.2016 4:30:02] x264 [info]: mb P I16..4: 0.3% 19.6% 2.4% P16..4: 36.5% 29.5% 11.4% 0.2% 0.0% skip: 0.1%
    ---[Information] [16.02.2016 4:30:02] x264 [info]: mb B I16..4: 0.0% 2.5% 0.3% B16..8: 40.9% 22.1% 5.4% direct:22.1% skip: 6.7% L0:49.7% L1:39.2% BI:11.0%
    ---[Information] [16.02.2016 4:30:02] x264 [info]: 8x8 transform intra:87.1% inter:68.0%
    ---[Information] [16.02.2016 4:30:02] x264 [info]: direct mvs spatial:97.0% temporal:3.0%
    ---[Information] [16.02.2016 4:30:02] x264 [info]: coded y,uvDC,uvAC intra: 97.6% 0.0% 0.0% inter: 70.9% 0.0% 0.0%
    ---[Information] [16.02.2016 4:30:02] x264 [info]: i16 v,h,dc,p: 28% 26% 15% 31%
    ---[Information] [16.02.2016 4:30:02] x264 [info]: i8 v,h,dc,ddl,ddr,vr,hd,vl,hu: 10% 6% 4% 10% 15% 15% 15% 13% 13%
    ---[Information] [16.02.2016 4:30:02] x264 [info]: i4 v,h,dc,ddl,ddr,vr,hd,vl,hu: 8% 7% 2% 8% 15% 14% 18% 11% 17%
    ---[Information] [16.02.2016 4:30:02] x264 [info]: i8c dc,h,v,p: 100% 0% 0% 0%
    ---[Information] [16.02.2016 4:30:02] x264 [info]: Weighted P-Frames: Y:49.1% UV:0.0%
    ---[Information] [16.02.2016 4:30:02] x264 [info]: ref P L0: 31.2% 11.3% 13.6% 9.8% 7.0% 5.8% 4.8% 3.3% 2.9% 2.6% 2.3% 2.2% 2.0% 1.1% 0.0%
    ---[Information] [16.02.2016 4:30:02] x264 [info]: ref B L0: 58.9% 13.7% 7.7% 4.6% 3.5% 3.0% 2.6% 1.8% 1.5% 1.5% 0.8% 0.4%
    ---[Information] [16.02.2016 4:30:02] x264 [info]: ref B L1: 89.6% 10.4%
    ---[Information] [16.02.2016 4:30:02] x264 [info]: kb/s:3289.27
    ---[Information] [16.02.2016 4:30:02] encoded 83998 frames, 10.74 fps, 3289.27 kb/s
    --[Information] [16.02.2016 4:30:02] Final statistics
    ---[Information] [16.02.2016 4:30:02] Video Bitrate Desired: 3289 kbit/s
    ---[Information] [16.02.2016 4:30:02] Video Bitrate Obtained (approximate): 3289 kbit/s
    Скриншоты:
    !!!Все релизы этого фильма в Клубе!!!Время раздачи: с 23:00 до 5:00 по Москве
    Скачать .torrent

    Скачать торрент-файл бесплатно и на максимальной скорости!

    Как скачивать? · Что такое торрент? · Рейтинг и ограничения

    !ВНИМАНИЕ!
    Сайт не распространяет и не хранит электронные версии произведений, а занимается лишь лишь предоставлением доступа к создаваемому пользователями каталогу ссылок на торрент-файлы, которые содержат только списки хеш-сумм, убедительная просьба с жалобами обращаться напрямую к пользователю. Файлы для обмена на трекере предоставлены пользователями сайта, и администрация не несёт ответственности за их содержание. Просьба не заливать файлы, защищенные авторскими правами, а также файлы нелегального содержания!


    _________________
    [Профиль] [ЛС]
    Показать сообщения:    
    Ответить на тему

    Текущее время: Сегодня, в 22:01

    Часовой пояс: GMT + 2



    Вы не можете начинать темы
    Вы не можете отвечать на сообщения
    Вы не можете редактировать свои сообщения
    Вы не можете удалять свои сообщения
    Вы не можете голосовать в опросах
    Вы не можете прикреплять файлы к сообщениям
    Вы не можете скачивать файлы