BitTorrentTracker PerecTracker.org
BitTorrentTracker PerecTracker.org
    
Регистрация  ·  Вход
 
 · 
Забыли пароль?

  • Сомбреро (1959) DVDRip [H.264]

    Ответить на тему
     
    Автор Сообщение

    Light

    Создавать темы 21-Сен-2016 12:20

           

    [Цитировать]

    - Сомбреро (1959) DVDRip -Производство: СССР
    Жанр: Детский, Комедия
    Режиссер: Тамара Лисициан
    Актеры: Толя Кулаков, Витя Перевалов, Миша Тягунов, Наташа Панина, Людмила Чернышева, Сергей Филиппов, Вадим Грачев, Сергей Корень
    Описание:
    Роль д`Артаньяна в школьном спектакле готовит Шура Тычинкин, но внезапно роль отдают другому. Тогда Шура, чтобы убедить всех в своем таланте, надевает мексиканский костюм и выдает себя за собственного брата, приехавшего из Латинской Америки.

    Продолжительность: 01:03:38
    Качество видео: DVDRip
    Видео: AVC/H.264, 720x544, ~1520 Kbps
    Аудио: AC3, 2 ch, 128 kbps, CBR

    Mediainfo:

    General
    Unique ID                   : 198517653165762631281683265376164201697 (0x95591BF9425506E5A36CB2D1CCBB44E1)
    Complete name               : Сомбреро.mkv
    Format                      : Matroska
    Format version              : Version 4 / Version 2
    File size                   : 749 MiB
    Duration                    : 1h 3mn
    Overall bit rate            : 1 645 Kbps
    Movie name                  : Сомбреро (rip by smithland)
    Encoded date                : UTC 2016-03-09 15:05:07
    Writing application         : mkvmerge v8.9.0 ('Father Daughter') 64bit
    Writing library             : libebml v1.3.3 + libmatroska v1.4.4
    Cover                       : Yes
    Attachments                 : COVER.jpg
    Video
    ID                          : 1
    Format                      : AVC
    Format/Info                 : Advanced Video Codec
    Format profile              : High@L4
    Format settings, CABAC      : Yes
    Format settings, ReFrames   : 10 frames
    Codec ID                    : V_MPEG4/ISO/AVC
    Duration                    : 1h 3mn
    Bit rate                    : 1 520 Kbps
    Width                       : 720 pixels
    Height                      : 544 pixels
    Display aspect ratio        : 4:3
    Frame rate mode             : Constant
    Frame rate                  : 25.000 fps
    Color space                 : YUV
    Chroma subsampling          : 4:2:0
    Bit depth                   : 8 bits
    Scan type                   : Progressive
    Bits/(Pixel*Frame)          : 0.155
    Stream size                 : 690 MiB (92%)
    Writing library             : x264 core 146 r2538 121396c
    Encoding settings           : cabac=1 / ref=10 / deblock=1:-1:-1 / analyse=0x3:0x133 / me=umh / subme=11 / psy=1 / psy_rd=1.32:0.37 / mixed_ref=1 / me_range=28 / chroma_me=1 / trellis=2 / 8x8dct=1 / cqm=0 / deadzone=21,11 / fast_pskip=1 / chroma_qp_offset=-4 / threads=12 / lookahead_threads=1 / sliced_threads=0 / nr=0 / decimate=0 / interlaced=0 / bluray_compat=0 / constrained_intra=0 / bframes=5 / b_pyramid=2 / b_adapt=1 / b_bias=0 / direct=1 / weightb=1 / open_gop=1 / weightp=2 / keyint=250 / keyint_min=25 / scenecut=40 / intra_refresh=0 / rc_lookahead=40 / rc=abr / mbtree=1 / bitrate=1520 / ratetol=1.0 / qcomp=0.60 / qpmin=0 / qpmax=69 / qpstep=4 / ip_ratio=1.40 / aq=1:1.10
    Language                    : Russian
    Default                     : Yes
    Forced                      : Yes
    Color range                 : Limited
    Color primaries             : Generic film
    Audio
    ID                          : 2
    Format                      : AC-3
    Format/Info                 : Audio Coding 3
    Mode extension              : CM (complete main)
    Format settings, Endianness : Big
    Codec ID                    : A_AC3
    Duration                    : 1h 3mn
    Bit rate mode               : Constant
    Bit rate                    : 128 Kbps
    Channel(s)                  : 2 channels
    Channel positions           : Front: L R
    Sampling rate               : 48.0 KHz
    Frame rate                  : 31.250 fps (1536 spf)
    Compression mode            : Lossy
    Stream size                 : 58.3 MiB (8%)
    Language                    : Russian
    Default                     : Yes
    Forced                      : Yes
    Скриншоты:

    Дополнительные скриншоты:

    все релизы фильма на NNM-CLUBВремя раздачи: 1200-2200 (до появления первых 3-5 скачавших)
    Скачать .torrent

    Скачать торрент-файл бесплатно и на максимальной скорости!

    Как скачивать? · Что такое торрент? · Рейтинг и ограничения

    !ВНИМАНИЕ!
    Сайт не распространяет и не хранит электронные версии произведений, а занимается лишь лишь предоставлением доступа к создаваемому пользователями каталогу ссылок на торрент-файлы, которые содержат только списки хеш-сумм, убедительная просьба с жалобами обращаться напрямую к пользователю. Файлы для обмена на трекере предоставлены пользователями сайта, и администрация не несёт ответственности за их содержание. Просьба не заливать файлы, защищенные авторскими правами, а также файлы нелегального содержания!


    _________________
    [Профиль] [ЛС]
    Показать сообщения:    
    Ответить на тему

    Текущее время: Сегодня, в 04:37

    Часовой пояс: GMT + 2



    Вы не можете начинать темы
    Вы не можете отвечать на сообщения
    Вы не можете редактировать свои сообщения
    Вы не можете удалять свои сообщения
    Вы не можете голосовать в опросах
    Вы не можете прикреплять файлы к сообщениям
    Вы не можете скачивать файлы