BitTorrentTracker PerecTracker.org
BitTorrentTracker PerecTracker.org
    
Регистрация  ·  Вход
 
 · 
Забыли пароль?

  • Голубая чашка (1964) IPTVRip

    Ответить на тему
     
    Автор Сообщение

    Light

    Создавать темы 21-Сен-2016 12:20

           

    [Цитировать]

    - Голубая чашка (1964) IPTVRip -Производство: СССР, Центральное Телевидение
    Жанр: Семейный, Детский
    Режиссер: Виктор Храмов, Майя Маркова
    Актеры: Юрий Горобец, Любовь Чумакова, Светлана Жгун, Борис Чирков, Светлана Харитонова, Евгений Петунин, Владимир Удалов, Ниязик Иманкулов, Марина Антипова, Павел Винник, Владимир Андреев, Всеволод Платов, Леонид Пирогов, Ирина Мурзаева, Анатолий Федоринов
    Описание:
    По одноименному рассказу Аркадия Гайдара про один летний день.
    Про то, как молодая семья - папа и мама с дочкой Светланой - сняли на лето дачу. Старенький такой сарайчик, в котором им сразу после переезда пришлось крышу поправлять, забор прибивать и вообще все время что-то убирать и ремонтировать. И отношения у них как-то подпортились, потому что все хотели отдыхать, собирать грибы, удить рыбу и валяться на траве. А тут еще к маме приехал в гости какой-то посторонний летчик, и папа с дочкой и вовсе приуныли. Да и мама обвинила их в том, что они разбили ее любимую голубую чашку, которую они совсем и не разбивали. И обиженные на несправедливость папа с дочкой уходят (как считает маленькая Светланка) из дому. Целый день они бродят по светлому и прекрасному гайдаровскому миру, встречая разных хороших и добрых людей, детей и взрослых... А голубая чашка, кстати, тут совершенно ни при чем — как она разбилась, так и не выяснилось. Сошлись на том, что разбили чашку злые серые мыши. На тех дачах всегда водились мыши. Вот так.

    Продолжительность: 00:56:51
    Качество видео: IPTVRip
    Видео: Xvid, 720x544, ~2202 Кбит/сек
    Аудио: MP3, 2 ch, 192 Кбит/сек, CBR

    Mediainfo:

    Общее
    Полное имя                               : E:\Голубая чашка (1964) IPTVRip.avi
    Формат                                   : AVI
    Формат/Информация                        : Audio Video Interleave
    Размер файла                             : 977 Мбайт
    Продолжительность                        : 56 м.
    Общий поток                              : 2404 Кбит/сек
    Программа кодирования                    : VirtualDubMod 1.5.10.2 (build 2540/release)
    Библиотека кодирования                   : VirtualDubMod build 2540/release
    Видео
    Идентификатор                            : 0
    Формат                                   : MPEG-4 Visual
    Профиль формата                          : Advanced Simple@L5
    Параметр BVOP формата                    : 2
    Параметр QPel формата                    : Нет
    Параметр GMC формата                     : Без точки перехода
    Параметр матрицы формата                 : Default (H.263)
    Режим смешивания                         : Сжатый битовый поток
    Идентификатор кодека                     : XVID
    Идентификатор кодека/Подсказка           : XviD
    Продолжительность                        : 56 м.
    Битрейт                                  : 2202 Кбит/сек
    Ширина                                   : 720 пикселей
    Высота                                   : 544 пикселя
    Соотношение сторон                       : 4:3
    Частота кадров                           : 25,000 кадров/сек
    Цветовое пространство                    : YUV
    Субдискретизация насыщенности            : 4:2:0
    Битовая глубина                          : 8 бит
    Тип развёртки                            : Прогрессивная
    Метод сжатия                             : С потерями
    Бит/(Пиксели*Кадры)                      : 0.225
    Размер потока                            : 895 Мбайт (92%)
    Библиотека кодирования                   : XviD 73
    Аудио
    Идентификатор                            : 1
    Формат                                   : MPEG Audio
    Версия формата                           : Version 1
    Профиль формата                          : Layer 3
    Режим                                    : Joint stereo
    Расширение режима                        : MS Stereo
    Идентификатор кодека                     : 55
    Идентификатор кодека/Подсказка           : MP3
    Продолжительность                        : 56 м.
    Вид битрейта                             : Постоянный
    Битрейт                                  : 192 Кбит/сек
    Каналы                                   : 2 канала
    Частота                                  : 48,0 КГц
    Метод сжатия                             : С потерями
    Размер потока                            : 78,1 Мбайт (8%)
    Выравнивание                             : Соединение по промежуткам
    Продолжительность промежутка             : 40  мс. (1,00 видеокадр)
    Время предзагрузки промежутка            : 504  мс.
    Библиотека кодирования                   : LAME3.99r
    Настройки программы                      : -m j -V 4 -q 3 -lowpass 18.6 -b 192
    Скриншоты:

    Дополнительные скриншоты:

    Время раздачи: С 18:00 до 23:00 (до появления первых 3-5 скачавших)
    Все релизы "Голубая чашка (1964)" на NNM-CLUB
    Скачать .torrent

    Скачать торрент-файл бесплатно и на максимальной скорости!

    Как скачивать? · Что такое торрент? · Рейтинг и ограничения

    !ВНИМАНИЕ!
    Сайт не распространяет и не хранит электронные версии произведений, а занимается лишь лишь предоставлением доступа к создаваемому пользователями каталогу ссылок на торрент-файлы, которые содержат только списки хеш-сумм, убедительная просьба с жалобами обращаться напрямую к пользователю. Файлы для обмена на трекере предоставлены пользователями сайта, и администрация не несёт ответственности за их содержание. Просьба не заливать файлы, защищенные авторскими правами, а также файлы нелегального содержания!


    _________________
    [Профиль] [ЛС]
    Показать сообщения:    
    Ответить на тему

    Текущее время: Сегодня, в 00:16

    Часовой пояс: GMT + 2



    Вы не можете начинать темы
    Вы не можете отвечать на сообщения
    Вы не можете редактировать свои сообщения
    Вы не можете удалять свои сообщения
    Вы не можете голосовать в опросах
    Вы не можете прикреплять файлы к сообщениям
    Вы не можете скачивать файлы