BitTorrentTracker PerecTracker.org
BitTorrentTracker PerecTracker.org
    
Регистрация  ·  Вход
 
 · 
Забыли пароль?

  • Сказка, рассказанная ночью (1981) DVDRip [H.264]

    Ответить на тему
     
    Автор Сообщение

    Light

    Создавать темы 21-Сен-2016 12:20

           

    [Цитировать]

    - Сказка, рассказанная ночью (1981) DVDRip -Производство: СССР
    Жанр: Сказка, Драма
    Режиссер: Ирина Тарковская
    Актеры: Игорь Костолевский, Александр Лазарев ст., Александр Галибин, Александр Калягин, Расми Джабраилов, Мара Звайгзне, Дмитрий Кречетов, Майя Кирсе, Леонид Ярмольник, Ирина Мурзаева, Дмитрий Кравцов, Виктор Косых, Юри Ярвет, Валентинс Скулме
    Описание:
    В лесной избушке остались на ночлег Студент, Аптекарь, двое подмастерьев, Графиня с тетушкой. Внезапно появившиеся разбойники потребовали выдать им Графиню.

    Релиз от: smithland (remastered)
    Продолжительность: 01:12:38
    Качество видео: DVDRip
    Видео: AVC/H.264, 720x408, ~1185 Kbps
    Аудио: AC3, 2 ch, 160 Kbps, CBR

    Mediainfo:

    General
    Unique ID                      : 236568415454938375739675817768662099888 (0xB1F96B65CCBB1097A1428C847E0C67B0)
    Complete name                  : E:\Сказка рассказанная ночью.mkv
    Format                         : Matroska
    Format version                 : Version 4 / Version 2
    File size                      : 697 MiB
    Duration                       : 1h 12mn
    Overall bit rate               : 1 342 Kbps
    Movie name                     : Сказка рассказанная ночью (remastered by smithland)
    Encoded date                   : UTC 2016-03-17 17:51:20
    Writing application            : mkvmerge v8.9.0 ('Father Daughter') 64bit
    Writing library                : libebml v1.3.3 + libmatroska v1.4.4
    Attachements                   : cover.png
    DURATION                       : 01:12:34.912000000
    NUMBER_OF_FRAMES               : 136091
    NUMBER_OF_BYTES                : 87098240
    _STATISTICS_WRITING_APP        : mkvmerge v8.9.0 ('Father Daughter') 64bit
    _STATISTICS_WRITING_DATE_UTC   : 2016-03-17 17:51:20
    _STATISTICS_TAGS               : BPS DURATION NUMBER_OF_FRAMES NUMBER_OF_BYTES
    Video
    ID                             : 1
    Format                         : AVC
    Format/Info                    : Advanced Video Codec
    Format profile                 : High@L4
    Format settings, CABAC         : Yes
    Format settings, ReFrames      : 10 frames
    Codec ID                       : V_MPEG4/ISO/AVC
    Duration                       : 1h 12mn
    Bit rate                       : 1 185 Kbps
    Width                          : 720 pixels
    Height                         : 408 pixels
    Display aspect ratio           : 16:9
    Frame rate mode                : Constant
    Frame rate                     : 25.000 fps
    Color space                    : YUV
    Chroma subsampling             : 4:2:0
    Bit depth                      : 8 bits
    Scan type                      : Progressive
    Bits/(Pixel*Frame)             : 0.161
    Stream size                    : 600 MiB (86%)
    Writing library                : x264 core 146 r2538 121396c
    Encoding settings              : cabac=1 / ref=10 / deblock=1:-2:-1 / analyse=0x3:0x133 / me=umh / subme=11 / psy=1 / psy_rd=1.30:0.33 / mixed_ref=1 / me_range=28 / chroma_me=1 / trellis=2 / 8x8dct=1 / cqm=0 / deadzone=21,11 / fast_pskip=1 / chroma_qp_offset=-4 / threads=12 / lookahead_threads=1 / sliced_threads=0 / nr=0 / decimate=0 / interlaced=0 / bluray_compat=0 / constrained_intra=0 / bframes=6 / b_pyramid=2 / b_adapt=1 / b_bias=0 / direct=1 / weightb=1 / open_gop=1 / weightp=2 / keyint=250 / keyint_min=25 / scenecut=40 / intra_refresh=0 / rc_lookahead=40 / rc=abr / mbtree=1 / bitrate=1185 / ratetol=1.0 / qcomp=0.60 / qpmin=0 / qpmax=69 / qpstep=4 / ip_ratio=1.40 / aq=1:1.10
    Language                       : Russian
    Default                        : Yes
    Forced                         : Yes
    Color range                    : Limited
    Color primaries                : Generic film
    Audio
    ID                             : 2
    Format                         : AC-3
    Format/Info                    : Audio Coding 3
    Mode extension                 : CM (complete main)
    Format settings, Endianness    : Big
    Codec ID                       : A_AC3
    Duration                       : 1h 12mn
    Bit rate mode                  : Constant
    Bit rate                       : 160 Kbps
    Channel(s)                     : 2 channels
    Channel positions              : Front: L R
    Sampling rate                  : 48.0 KHz
    Compression mode               : Lossy
    Stream size                    : 83.1 MiB (12%)
    Language                       : Russian
    Default                        : Yes
    Forced                         : Yes

    Дополнительная информация:

    Проведена работа по коррекции, очистке видео и звука
    Скриншоты:

    Дополнительные скриншоты:

    все релизы фильма на NNM-CLUBВремя раздачи: 1200-2200 (до появления первых 3-5 скачавших)
    Скачать .torrent

    Скачать торрент-файл бесплатно и на максимальной скорости!

    Как скачивать? · Что такое торрент? · Рейтинг и ограничения

    !ВНИМАНИЕ!
    Сайт не распространяет и не хранит электронные версии произведений, а занимается лишь лишь предоставлением доступа к создаваемому пользователями каталогу ссылок на торрент-файлы, которые содержат только списки хеш-сумм, убедительная просьба с жалобами обращаться напрямую к пользователю. Файлы для обмена на трекере предоставлены пользователями сайта, и администрация не несёт ответственности за их содержание. Просьба не заливать файлы, защищенные авторскими правами, а также файлы нелегального содержания!


    _________________
    [Профиль] [ЛС]
    Показать сообщения:    
    Ответить на тему

    Текущее время: Сегодня, в 05:51

    Часовой пояс: GMT + 2



    Вы не можете начинать темы
    Вы не можете отвечать на сообщения
    Вы не можете редактировать свои сообщения
    Вы не можете удалять свои сообщения
    Вы не можете голосовать в опросах
    Вы не можете прикреплять файлы к сообщениям
    Вы не можете скачивать файлы