BitTorrentTracker PerecTracker.org
BitTorrentTracker PerecTracker.org
    
Регистрация  ·  Вход
 
 · 
Забыли пароль?

  • Родина или смерть (2007) DVDRip

    Ответить на тему
     
    Автор Сообщение

    Light

    Создавать темы 21-Сен-2016 12:20

           

    [Цитировать]

    - Родина или смерть (2007) DVDRip -Производство: Россия, Беларусь / Студия Стелла
    Жанр: Детский, Приключения, Военный
    Режиссер: Алла Криницына
    Актеры: Екатерина Редникова, Владислав Вьюжанин, Оксана Лесная, Федор Попов, Андрей Добровольский, Виктор Немец, Денис Никитин, Дмитрий Пустильник
    Описание:
    Осенью 1942 года в прифронтовом районе происходит крупная железнодорожная диверсия: подрыв советского воинского эшелона, везущего на фронт технику и бойцов. Мгновенная реакция НКВД и военной контрразведки дает свои результаты. Становится известно, что в прифронтовой район, через лесную болотистую местность переброшена группа подростков–диверсантов из германского диверсионного лагеря, созданного фашистами на оккупированной территории. Лагерь создан на базе бывшего детского дома для детей «врагов народа», не успевшего эвакуироваться. Фашисты посчитали, что обездоленных, лишенных родителей детей, да еще с таким клеймом, легко можно превратить в слепое орудие для свершения различных диверсий. Но расчет их оказался верным лишь отчасти…

    Возраст: 12+ (зрителям, достигшим 12 лет)
    Релиз от: ExKinoRay
    Продолжительность: 01:25:13
    Качество видео: DVDRip
    Видео: Xvid, 720x432 (1.667), 25.000 fps, 1846 Kbps (0.237 bit/pixel)
    Аудио: AC-3, 48.0 KHz, 6 ch, 448 Kbps, CBR

    Mediainfo:

    General
    Complete name                  : C:\Фильмы\Rodina.ili.smert.2007.DVDRip.ExKinoRay.avi
    Format                         : AVI
    Format/Info                    : Audio Video Interleave
    File size                      : 1.37 GiB
    Duration                       : 1h 25mn
    Overall bit rate               : 2 304 Kbps
    Writing application            : VirtualDubMod 1.5.10.3 | [url=http://www.virtualdub-fr.org]www.virtualdub-fr.org[/url] || (build 2550/release)
    Writing library                : VirtualDubMod build 2550/release
    Video
    ID                             : 0
    Format                         : MPEG-4 Visual
    Format profile                 : Advanced Simple@L5
    Format settings, BVOP          : 2
    Format settings, QPel          : No
    Format settings, GMC           : No warppoints
    Format settings, Matrix        : Custom
    Codec ID                       : XVID
    Codec ID/Hint                  : XviD
    Duration                       : 1h 25mn
    Bit rate                       : 1 846 Kbps
    Width                          : 720 pixels
    Height                         : 432 pixels
    Display aspect ratio           : 5:3
    Frame rate                     : 25.000 fps
    Color space                    : YUV
    Chroma subsampling             : 4:2:0
    Bit depth                      : 8 bits
    Scan type                      : Progressive
    Compression mode               : Lossy
    Bits/(Pixel*Frame)             : 0.237
    Stream size                    : 1.10 GiB (80%)
    Writing library                : XviD 73
    Audio
    ID                             : 1
    Format                         : AC-3
    Format/Info                    : Audio Coding 3
    Mode extension                 : CM (complete main)
    Format settings, Endianness    : Big
    Codec ID                       : 2000
    Duration                       : 1h 25mn
    Bit rate mode                  : Constant
    Bit rate                       : 448 Kbps
    Channel(s)                     : 6 channels
    Channel positions              : Front: L C R, Side: L R, LFE
    Sampling rate                  : 48.0 KHz
    Compression mode               : Lossy
    Stream size                    : 273 MiB (19%)
    Alignment                      : Split accross interleaves
    Interleave, duration           : 40 ms (1.00 video frame)
    Interleave, preload duration   : 500 ms
    Скриншоты:
    Все одноименные релизы на NNM-Club Время раздачи: 08:00 - 23:00 (до появления первых 3-5 скачавших)
    Скачать .torrent

    Скачать торрент-файл бесплатно и на максимальной скорости!

    Как скачивать? · Что такое торрент? · Рейтинг и ограничения

    !ВНИМАНИЕ!
    Сайт не распространяет и не хранит электронные версии произведений, а занимается лишь лишь предоставлением доступа к создаваемому пользователями каталогу ссылок на торрент-файлы, которые содержат только списки хеш-сумм, убедительная просьба с жалобами обращаться напрямую к пользователю. Файлы для обмена на трекере предоставлены пользователями сайта, и администрация не несёт ответственности за их содержание. Просьба не заливать файлы, защищенные авторскими правами, а также файлы нелегального содержания!


    _________________
    [Профиль] [ЛС]
    Показать сообщения:    
    Ответить на тему

    Текущее время: Сегодня, в 00:24

    Часовой пояс: GMT + 2



    Вы не можете начинать темы
    Вы не можете отвечать на сообщения
    Вы не можете редактировать свои сообщения
    Вы не можете удалять свои сообщения
    Вы не можете голосовать в опросах
    Вы не можете прикреплять файлы к сообщениям
    Вы не можете скачивать файлы