BitTorrentTracker PerecTracker.org
BitTorrentTracker PerecTracker.org
    
Регистрация  ·  Вход
 
 · 
Забыли пароль?

  • Очкарик (1972) TVRip

    Ответить на тему
     
    Автор Сообщение

    Light

    Создавать темы 21-Сен-2016 12:20

           

    [Цитировать]

    - Очкарик (1972) TVRip -Производство: СССР, Киргизтелефильм
    Жанр: Детский, Короткометражный
    Режиссёр: Альгимантас Видугирис
    Актёры: Олег Каркавцев, Андрей Сапуев, Андрей Губанов, Советбек Джумадылов, Эльмира Илипаева
    Описание:
    О неловком и рассеянном мальчике Куванычбеке, который лишь в мечтах видел себя смелым и сильным. Но, проведя лето у своего дяди на Иссык-Куле, он окреп, подрос и уже мог постоять за себя.

    Возраст: 6+ (зрителям, достигшим 6 лет)
    Дата российской премьеры: 1972
    Релиз от: kolman67
    Продолжительность: 00:45:15
    Качество видео: VHSRip
    Видео: DivX 3, 704x496, ~1571 Кбит/с
    Аудио: MP3, 2 ch, 128 Кбит/с

    Mediainfo:

    Общее
    Полное имя : Очкарик (1972) TVRip.avi
    Формат : AVI
    Формат/Информация : Audio Video Interleave
    Размер файла : 550 Мбайт
    Продолжительность : 45 м.
    Общий поток : 1699 Кбит/сек
    Программа кодирования : VirtualDubMod 1.5.10.3 (build 2550/release)
    Библиотека кодирования : VirtualDubMod build 2550/release
    Видео
    Идентификатор : 0
    Формат : MPEG-4 Visual
    Параметр BVOP формата : 1
    Параметр QPel формата : Нет
    Параметр GMC формата : Без точки перехода
    Параметр матрицы формата : Default (MPEG)
    Режим смешивания : Сжатый битовый поток
    Идентификатор кодека : DX50
    Идентификатор кодека/Подсказка : DivX 5
    Продолжительность : 45 м.
    Битрейт : 1562 Кбит/сек
    Ширина : 704 пикселя
    Высота : 496 пикселей
    Соотношение сторон : 1,419
    Частота кадров : 25,000 кадров/сек
    Цветовое пространство : YUV
    Субдискретизация насыщенности : 4:2:0
    Битовая глубина : 8 бит
    Тип развёртки : Прогрессивная
    Метод сжатия : С потерями
    Бит/(Пиксели*Кадры) : 0.179
    Размер потока : 506 Мбайт (92%)
    Библиотека кодирования : DivX 6.8.5 (UTC 2009-08-20)
    Аудио
    Идентификатор : 1
    Формат : MPEG Audio
    Версия формата : Version 1
    Профиль формата : Layer 3
    Режим : Joint stereo
    Идентификатор кодека : 55
    Идентификатор кодека/Подсказка : MP3
    Продолжительность : 45 м.
    Вид битрейта : Постоянный
    Битрейт : 128 Кбит/сек
    Каналы : 2 канала
    Частота : 48,0 КГц
    Метод сжатия : С потерями
    Размер потока : 41,4 Мбайт (8%)
    Выравнивание : Соединение по промежуткам
    Продолжительность промежутка : 40 мс. (1,00 видеокадр)
    Время предзагрузки промежутка : 504 мс.
    Скриншоты:
    Время раздачи: 24/7 (круглосуточно) (до появления первых 3-5 скачавших)
    Скачать .torrent

    Скачать торрент-файл бесплатно и на максимальной скорости!

    Как скачивать? · Что такое торрент? · Рейтинг и ограничения

    !ВНИМАНИЕ!
    Сайт не распространяет и не хранит электронные версии произведений, а занимается лишь лишь предоставлением доступа к создаваемому пользователями каталогу ссылок на торрент-файлы, которые содержат только списки хеш-сумм, убедительная просьба с жалобами обращаться напрямую к пользователю. Файлы для обмена на трекере предоставлены пользователями сайта, и администрация не несёт ответственности за их содержание. Просьба не заливать файлы, защищенные авторскими правами, а также файлы нелегального содержания!


    _________________
    [Профиль] [ЛС]
    Показать сообщения:    
    Ответить на тему

    Текущее время: Сегодня, в 22:27

    Часовой пояс: GMT + 2



    Вы не можете начинать темы
    Вы не можете отвечать на сообщения
    Вы не можете редактировать свои сообщения
    Вы не можете удалять свои сообщения
    Вы не можете голосовать в опросах
    Вы не можете прикреплять файлы к сообщениям
    Вы не можете скачивать файлы