BitTorrentTracker PerecTracker.org
BitTorrentTracker PerecTracker.org
    
Регистрация  ·  Вход
 
 · 
Забыли пароль?

  • Приключения Буратино (1975) DVD5

    Ответить на тему
     
    Автор Сообщение

    Light

    Создавать темы 21-Сен-2016 12:20

           

    [Цитировать]

    - Приключения Буратино (1975) DVD5 -Производство: СССР
    Жанр: Комедия, Приключения, Музыкальный
    Режиссер: Леонид Нечаев
    Актеры: Дмитрий Иосифов, Владимир Этуш, Ролан Быков, Елена Санаева, Владимир Басов, Татьяна Проценко, Роман Столкарц, Томас Аугустинас, Григорий Светлорусов, Николай Гринько
    Описание:
    На дурака не нужен нож: ему немного подпоешь — и делай с ним, что хошь! Деревянный человечек, которого Папа Карло выстругал из полена, получился веселым, дерзким, шумным и доверчивым. Лиса Алиса и Кот Базилио завели его в Страну Дураков, но мудрая Черепаха Тортила помогла Буратино найти Золотой Ключик, потому что он был ужасно обаятельным.

    Возраст: 6+ (зрителям, достигшим 6 лет)
    Релиз от: smithland
    Продолжительность: 02:12:56
    Качество видео: DVD5
    Видео: MPEG-2, 720x576@768x576, ~4064 Kbps
    Аудио: AC3, 2 ch, 224 Kbps, CBR

    Mediainfo:

    General
    Complete name               : Приключения Буратино
    Format                      : MPEG-PS
    Overall bit rate mode       : Variable
    Overall bit rate            : 4 375 Kbps
    Video
    ID                          : 224 (0xE0)
    Format                      : MPEG Video
    Format version              : Version 2
    Format profile              : Main@Main
    Format settings, BVOP       : Yes
    Format settings, Matrix     : Default
    Format settings, GOP        : M=3, N=12
    Bit rate mode               : Variable
    Bit rate                    : 4 064 Kbps
    Maximum bit rate            : 9 800 Kbps
    Width                       : 720 pixels
    Height                      : 576 pixels
    Display aspect ratio        : 4:3
    Frame rate                  : 25.000 fps
    Standard                    : Component
    Color space                 : YUV
    Chroma subsampling          : 4:2:0
    Bit depth                   : 8 bits
    Scan type                   : Progressive
    Compression mode            : Lossy
    Bits/(Pixel*Frame)          : 0.392
    Time code of first frame    : 00:00:00:00
    Time code source            : Group of pictures header
    GOP, Open/Closed            : Closed
    Stream size                 : 951 MiB (93%)
    Color primaries             : BT.601 PAL
    Transfer characteristics    : BT.470 System B, BT.470 System G
    Matrix coefficients         : BT.601
    Audio
    ID                          : 189 (0xBD)-128 (0x80)
    Format                      : AC-3
    Format/Info                 : Audio Coding 3
    Mode extension              : CM (complete main)
    Format settings, Endianness : Big
    Muxing mode                 : DVD-Video
    Bit rate mode               : Constant
    Bit rate                    : 224 Kbps
    Channel(s)                  : 2 channels
    Channel positions           : Front: L R
    Sampling rate               : 48.0 KHz
    Frame rate                  : 31.250 fps (1536 spf)
    Compression mode            : Lossy
    Stream size                 : 52.4 MiB (5%)

    Дополнительная информация:

    Собственная реставрация. Проведена работа по коррекции и очистке видео.
    Оригинальные DVD и BLU-Ray: http://vobzor.com/page.php?id=696
    Скриншоты:

    Дополнительные скриншоты:

    Скачать .torrent

    Скачать торрент-файл бесплатно и на максимальной скорости!

    Как скачивать? · Что такое торрент? · Рейтинг и ограничения

    !ВНИМАНИЕ!
    Сайт не распространяет и не хранит электронные версии произведений, а занимается лишь лишь предоставлением доступа к создаваемому пользователями каталогу ссылок на торрент-файлы, которые содержат только списки хеш-сумм, убедительная просьба с жалобами обращаться напрямую к пользователю. Файлы для обмена на трекере предоставлены пользователями сайта, и администрация не несёт ответственности за их содержание. Просьба не заливать файлы, защищенные авторскими правами, а также файлы нелегального содержания!


    _________________
    [Профиль] [ЛС]
    Показать сообщения:    
    Ответить на тему

    Текущее время: Сегодня, в 03:17

    Часовой пояс: GMT + 2



    Вы не можете начинать темы
    Вы не можете отвечать на сообщения
    Вы не можете редактировать свои сообщения
    Вы не можете удалять свои сообщения
    Вы не можете голосовать в опросах
    Вы не можете прикреплять файлы к сообщениям
    Вы не можете скачивать файлы