Register  ·  Log in
Forgot password?

  • Приключения Буратино (1975) DVD5

    Reply to topic
    Author Message


    Post 21-Sep-2016 13:20



    - Приключения Буратино (1975) DVD5 -Производство: СССР
    Жанр: Комедия, Приключения, Музыкальный
    Режиссер: Леонид Нечаев
    Актеры: Дмитрий Иосифов, Владимир Этуш, Ролан Быков, Елена Санаева, Владимир Басов, Татьяна Проценко, Роман Столкарц, Томас Аугустинас, Григорий Светлорусов, Николай Гринько
    На дурака не нужен нож: ему немного подпоешь — и делай с ним, что хошь! Деревянный человечек, которого Папа Карло выстругал из полена, получился веселым, дерзким, шумным и доверчивым. Лиса Алиса и Кот Базилио завели его в Страну Дураков, но мудрая Черепаха Тортила помогла Буратино найти Золотой Ключик, потому что он был ужасно обаятельным.

    Возраст: 6+ (зрителям, достигшим 6 лет)
    Релиз от: smithland
    Продолжительность: 02:12:56
    Качество видео: DVD5
    Видео: MPEG-2, 720x576@768x576, ~4064 Kbps
    Аудио: AC3, 2 ch, 224 Kbps, CBR


    Complete name               : Приключения Буратино
    Format                      : MPEG-PS
    Overall bit rate mode       : Variable
    Overall bit rate            : 4 375 Kbps
    ID                          : 224 (0xE0)
    Format                      : MPEG Video
    Format version              : Version 2
    Format profile              : Main@Main
    Format settings, BVOP       : Yes
    Format settings, Matrix     : Default
    Format settings, GOP        : M=3, N=12
    Bit rate mode               : Variable
    Bit rate                    : 4 064 Kbps
    Maximum bit rate            : 9 800 Kbps
    Width                       : 720 pixels
    Height                      : 576 pixels
    Display aspect ratio        : 4:3
    Frame rate                  : 25.000 fps
    Standard                    : Component
    Color space                 : YUV
    Chroma subsampling          : 4:2:0
    Bit depth                   : 8 bits
    Scan type                   : Progressive
    Compression mode            : Lossy
    Bits/(Pixel*Frame)          : 0.392
    Time code of first frame    : 00:00:00:00
    Time code source            : Group of pictures header
    GOP, Open/Closed            : Closed
    Stream size                 : 951 MiB (93%)
    Color primaries             : BT.601 PAL
    Transfer characteristics    : BT.470 System B, BT.470 System G
    Matrix coefficients         : BT.601
    ID                          : 189 (0xBD)-128 (0x80)
    Format                      : AC-3
    Format/Info                 : Audio Coding 3
    Mode extension              : CM (complete main)
    Format settings, Endianness : Big
    Muxing mode                 : DVD-Video
    Bit rate mode               : Constant
    Bit rate                    : 224 Kbps
    Channel(s)                  : 2 channels
    Channel positions           : Front: L R
    Sampling rate               : 48.0 KHz
    Frame rate                  : 31.250 fps (1536 spf)
    Compression mode            : Lossy
    Stream size                 : 52.4 MiB (5%)

    Дополнительная информация:

    Собственная реставрация. Проведена работа по коррекции и очистке видео.
    Оригинальные DVD и BLU-Ray:

    Дополнительные скриншоты:

    Download .torrent

    Download free and at maximum speed!

    How to Download? · What is a torrent? · Ratings and Limitations

    The site does not extend and does not store electronic(digital) versions of products, and only gives access to a reference catalogue created by users on torrent-files which contain only lists of the hash-sums, the earnest entreaty, with complaints(abuse) to access directly to the user. Files for an exchange on tracker are given by users of a site, and the administration does not bear the responsibility for their maintenance. The request to not fill in the files protected by copyrights, and also files of the illegal maintenance!

    [Profile] [PM]
    Display posts from previous:    
    Reply to topic

    The time now is: Today 21:44

    All times are GMT + 3 Hours

    You cannot post new topics in this forum
    You cannot reply to topics in this forum
    You cannot edit your posts in this forum
    You cannot delete your posts in this forum
    You cannot vote in polls in this forum
    You cannot attach files in this forum
    You cannot download files in this forum