BitTorrentTracker PerecTracker.org
BitTorrentTracker PerecTracker.org
    
Регистрация  ·  Вход
 
 · 
Забыли пароль?

  • Хрустальный башмачок (фильм-балет) (1960) DVDRip [H.264]

    Ответить на тему
     
    Автор Сообщение

    Light

    Создавать темы 21-Сен-2016 12:20

           

    [Цитировать]

    - Хрустальный башмачок (фильм-балет) (1960) DVDRip [H.264] -Производство: СССР, Киностудия им. Горького
    Жанр: Музыкальный, Сказка, Семейный
    Режиссер: Александр Роу
    Актеры: Раиса Стручкова, Александр Лапаури, Елена Рябинкина, Александр Радунский, Леонид Швачкин, Г. Ледях, Е. Ванке, Л. Чадарайн, М. Колпакчи, Н. Таборко, Ю. Выренков, Г. Тарасов, В. Захаров, Ю. Игнатов, Н. Симонова, В. Кудряшов, Ю. Скотт, В. Фаэрбах
    Описание:
    Традиционная сказка о Золушке, рассказанная с помощью танца. Фильм-балет, поставленный кинорежиссёром Александром Роу и режиссёром-балетмейстером Ростиславом Захаровым по либретто Н.Волкова, написанному по балету С.Прокофьева.
    Изображение и звук оригиналы, т.е. без реставрации.

    Возраст: 0+ (для любой зрительской аудитории)
    Релиз от: mebf109
    Продолжительность: 01:16:56
    Качество видео: DVDRip
    Видео: AVC/H.264, 736X560, ~2350 Kbps, 0,228 bit/pixel
    Аудио: AC3, 2 ch, ~256 Kbps, CBR

    Mediainfo:

    General
    Unique ID                   : 217418198857050897878764282505854927097 (0xA39138D2971F57DCAF9995BC871F40F9)
    Complete name               : D:\Проба\Хрустальный башмачок(1960)DVDRip.by.mebf109.mkv
    Format                      : Matroska
    Format version              : Version 2
    File size                   : 1.40 GiB
    Duration                    : 1h 16mn
    Overall bit rate            : 2 608 Kbps
    Encoded date                : UTC 2016-06-08 19:07:55
    Writing application         : mkvmerge v6.1.0 ('Old Devil') built on Mar  4 2013 09:10:42
    Writing library             : libebml v1.3.0 + libmatroska v1.4.0
    Video
    ID                          : 1
    Format                      : AVC
    Format/Info                 : Advanced Video Codec
    Format profile              : [url=mailto:High@L4.1]High@L4.1[/url]
    Format settings, CABAC      : Yes
    Format settings, ReFrames   : 7 frames
    Codec ID                    : V_MPEG4/ISO/AVC
    Duration                    : 1h 16mn
    Bit rate                    : 2 350 Kbps
    Width                       : 736 pixels
    Height                      : 560 pixels
    Display aspect ratio        : 4:3
    Frame rate mode             : Constant
    Frame rate                  : 25.000 fps
    Color space                 : YUV
    Chroma subsampling          : 4:2:0
    Bit depth                   : 8 bits
    Scan type                   : Progressive
    Bits/(Pixel*Frame)          : 0.228
    Stream size                 : 1.24 GiB (88%)
    Writing library             : x264 core 130 r2273 b3065e6
    Encoding settings           : cabac=1 / ref=7 / deblock=1:0:0 / analyse=0x3:0x133 / me=umh / subme=10 / psy=1 / psy_rd=1.00:0.00 / mixed_ref=1 / me_range=32 / chroma_me=1 / trellis=2 / 8x8dct=1 / cqm=0 / deadzone=21,11 / fast_pskip=0 / chroma_qp_offset=-2 / threads=3 / lookahead_threads=1 / sliced_threads=0 / nr=0 / decimate=0 / interlaced=0 / bluray_compat=0 / constrained_intra=0 / bframes=3 / b_pyramid=2 / b_adapt=2 / b_bias=0 / direct=3 / weightb=1 / open_gop=0 / weightp=2 / keyint=250 / keyint_min=25 / scenecut=40 / intra_refresh=0 / rc_lookahead=60 / rc=2pass / mbtree=1 / bitrate=2350 / ratetol=1.0 / qcomp=0.60 / qpmin=0 / qpmax=69 / qpstep=4 / cplxblur=20.0 / qblur=0.5 / ip_ratio=1.40 / aq=1:1.00
    Default                     : Yes
    Forced                      : No
    Audio
    ID                          : 2
    Format                      : AC-3
    Format/Info                 : Audio Coding 3
    Mode extension              : CM (complete main)
    Format settings, Endianness : Big
    Codec ID                    : A_AC3
    Duration                    : 1h 16mn
    Bit rate mode               : Constant
    Bit rate                    : 256 Kbps
    Channel(s)                  : 2 channels
    Channel positions           : Front: L R
    Sampling rate               : 48.0 KHz
    Compression mode            : Lossy
    Stream size                 : 141 MiB (10%)
    Default                     : Yes
    Forced                      : No
    Внимание! На всех исходниках присутствует рассинхронизация аудиодорожки. 18.06.2016 она сведена к минимуму.
    Просьба перезалить торрент. Извините за доставленные неудобства.
    Скриншоты:
    Время раздачи: 24/7 (до появления первых 3-5 скачавших)
    Скачать .torrent

    Скачать торрент-файл бесплатно и на максимальной скорости!

    Как скачивать? · Что такое торрент? · Рейтинг и ограничения

    !ВНИМАНИЕ!
    Сайт не распространяет и не хранит электронные версии произведений, а занимается лишь лишь предоставлением доступа к создаваемому пользователями каталогу ссылок на торрент-файлы, которые содержат только списки хеш-сумм, убедительная просьба с жалобами обращаться напрямую к пользователю. Файлы для обмена на трекере предоставлены пользователями сайта, и администрация не несёт ответственности за их содержание. Просьба не заливать файлы, защищенные авторскими правами, а также файлы нелегального содержания!


    _________________
    [Профиль] [ЛС]
    Показать сообщения:    
    Ответить на тему

    Текущее время: Сегодня, в 16:32

    Часовой пояс: GMT + 2



    Вы не можете начинать темы
    Вы не можете отвечать на сообщения
    Вы не можете редактировать свои сообщения
    Вы не можете удалять свои сообщения
    Вы не можете голосовать в опросах
    Вы не можете прикреплять файлы к сообщениям
    Вы не можете скачивать файлы