BitTorrentTracker PerecTracker.org
BitTorrentTracker PerecTracker.org
    
Регистрация  ·  Вход
 
 · 
Забыли пароль?

  • Солдатёнок (1972) VHSRip

    Ответить на тему
     
    Автор Сообщение

    Light

    Создавать темы 21-Сен-2016 12:20

           

    [Цитировать]

    - Солдатёнок (1972) VHSRip -Производство: СССР, Киргизтелефильм
    Жанр: Детский, Драма
    Режиссёр: Эльдар Уразбаев
    Актёры: Шайлоо Сагынбаев, Советбек Джумадылов, Таттыбюбю Турсунбаева, К.Джусубалиев, С.Кумушалиева, Н.Ихтимбаев, А.Айтыкеев, Б.Кадыкеев, С.Саралаев, Т.Сариев
    Описание:
    Однажды в кинофильме о войне пятилетний Авалбек «узнал» своего отца в солдате, идущем с гранатой на фашистский танк. И никто не посмел разуверить в этом мальчика.

    Возраст: 6+ (зрителям, достигшим 6 лет)
    Релиз от: kolman67
    Продолжительность: 00:36:40
    Качество видео: VHSRip
    Видео: Xvid, 576x472, ~2566 Kbps
    Аудио: AAC, 2 ch, 128 Кбит/с, CBR

    Mediainfo:

    Общее
    Полное имя : Солдатёнок (1972).mp4
    Формат : MPEG-4
    Профиль формата : Base Media
    Идентификатор кодека : isom (isom/iso2/mp41)
    Размер файла : 708 Мбайт
    Продолжительность : 36 м.
    Режим общего битрейта : Переменный
    Общий поток : 2699 Кбит/сек
    Название фильма : AudioHandler
    Программа кодирования : XviD4PSP 7.0.277 DAILY
    encoding_info : MATROSKA / WEBM > MP4 Произвольный H264 > XVID CBR 2800kbps HQ MP3 > AAC CBR 128kbps LC
    Видео
    Идентификатор : 1
    Формат : MPEG-4 Visual
    Профиль формата : Simple@L3
    Параметр BVOP формата : Нет
    Параметр QPel формата : Нет
    Параметр GMC формата : Без точки перехода
    Параметр матрицы формата : Default (H.263)
    Идентификатор кодека : 20
    Продолжительность : 36 м.
    Вид битрейта : Переменный
    Битрейт : 2566 Кбит/сек
    Максимальный битрейт : 2800 Кбит/сек
    Ширина : 576 пикселей
    Высота : 472 пикселя
    Соотношение сторон : 4:3
    Режим частоты кадров : Постоянный
    Частота кадров : 25,000 кадров/сек
    Цветовое пространство : YUV
    Субдискретизация насыщенности : 4:2:0
    Битовая глубина : 8 бит
    Тип развёртки : Прогрессивная
    Метод сжатия : С потерями
    Бит/(Пиксели*Кадры) : 0.378
    Размер потока : 673 Мбайт (95%)
    Библиотека кодирования : XviD 67
    Аудио
    Идентификатор : 2
    Формат : AAC
    Формат/Информация : Advanced Audio Codec
    Профиль формата : LC
    Идентификатор кодека : 40
    Продолжительность : 36 м.
    Вид битрейта : Постоянный
    Битрейт : 128 Кбит/сек
    Каналы : 2 канала
    Расположение каналов : Front: L R
    Частота : 44,1 КГц
    Частота кадров : 43,066 кадра/сек (1024 spf)
    Метод сжатия : С потерями
    Размер потока : 33,6 Мбайт (5%)
    Default : Да
    Alternate group : 1
    Скриншоты:

    Дополнительные скриншоты:

    Время раздачи: 24/7 (круглосуточно) (до появления первых 3-5 скачавших)
    Скачать .torrent

    Скачать торрент-файл бесплатно и на максимальной скорости!

    Как скачивать? · Что такое торрент? · Рейтинг и ограничения

    !ВНИМАНИЕ!
    Сайт не распространяет и не хранит электронные версии произведений, а занимается лишь лишь предоставлением доступа к создаваемому пользователями каталогу ссылок на торрент-файлы, которые содержат только списки хеш-сумм, убедительная просьба с жалобами обращаться напрямую к пользователю. Файлы для обмена на трекере предоставлены пользователями сайта, и администрация не несёт ответственности за их содержание. Просьба не заливать файлы, защищенные авторскими правами, а также файлы нелегального содержания!


    _________________
    [Профиль] [ЛС]
    Показать сообщения:    
    Ответить на тему

    Текущее время: Сегодня, в 12:28

    Часовой пояс: GMT + 2



    Вы не можете начинать темы
    Вы не можете отвечать на сообщения
    Вы не можете редактировать свои сообщения
    Вы не можете удалять свои сообщения
    Вы не можете голосовать в опросах
    Вы не можете прикреплять файлы к сообщениям
    Вы не можете скачивать файлы