BitTorrentTracker PerecTracker.org
BitTorrentTracker PerecTracker.org
    
Регистрация  ·  Вход
 
 · 
Забыли пароль?

  • Ты только не плачь (1979) WEBRip

    Ответить на тему
     
    Автор Сообщение

    Light

    Создавать темы 21-Сен-2016 12:20

           

    [Цитировать]

    - Ты только не плачь (1979) WEBRip -Производство: СССР, киностудия им. А. Довженко
    Жанр: Детский, Семейный
    Режиссер: Алексей Мороз
    Актеры: Лене Серада, Владимир Чубарев, Константин Степанков, Павел Кадочников, Валерия Чайковская, Юлия Ткаченко, Владимир Волков
    Описание:
    Второклассница Оля, выбрав себе в вожатые трудного подростка Генку Огонькова, решила его перевоспитать. Это у неё неплохо получилось — сирота Генка оказался хорошим и добрым мальчишкой.

    Релиз от: ФЕНИКС
    Продолжительность: 01:04:28
    Качество видео: WEBRip
    Видео: Xvid, 720x304, ~2190 Kbps
    Аудио: MP3, 2 ch, 192 Kbps, CBR

    Mediainfo:

    Общее
    Полное имя                               : Z:\Ты только не плачь (1979) WEBRip.avi
    Формат                                   : AVI
    Формат/Информация                        : Audio Video Interleave
    Размер файла                             : 1,08 Гбайт
    Продолжительность                        : 1 ч. 4 м.
    Общий поток                              : 2392 Кбит/сек
    Программа кодирования                    : VirtualDubModRus 1.5.10.2 (build 2540/release)
    Библиотека кодирования                   : VirtualDubMod build 2540/release
    Видео
    Идентификатор                            : 0
    Формат                                   : MPEG-4 Visual
    Профиль формата                          : Advanced Simple@L5
    Параметр BVOP формата                    : 2
    Параметр QPel формата                    : Нет
    Параметр GMC формата                     : Без точки перехода
    Параметр матрицы формата                 : Default (H.263)
    Режим смешивания                         : Сжатый битовый поток
    Идентификатор кодека                     : XVID
    Идентификатор кодека/Подсказка           : XviD
    Продолжительность                        : 1 ч. 4 м.
    Битрейт                                  : 2190 Кбит/сек
    Ширина                                   : 720 пикселей
    Высота                                   : 304 пикселя
    Соотношение сторон                       : 2,35:1
    Частота кадров                           : 25,000 кадров/сек
    Цветовое пространство                    : YUV
    Субдискретизация насыщенности            : 4:2:0
    Битовая глубина                          : 8 бит
    Тип развёртки                            : Прогрессивная
    Метод сжатия                             : С потерями
    Бит/(Пиксели*Кадры)                      : 0.400
    Размер потока                            : 1010 Мбайт (92%)
    Библиотека кодирования                   : XviD 65
    Аудио
    Идентификатор                            : 1
    Формат                                   : MPEG Audio
    Версия формата                           : Version 1
    Профиль формата                          : Layer 3
    Режим                                    : Joint stereo
    Расширение режима                        : MS Stereo
    Идентификатор кодека                     : 55
    Идентификатор кодека/Подсказка           : MP3
    Продолжительность                        : 1 ч. 4 м.
    Вид битрейта                             : Постоянный
    Битрейт                                  : 192 Кбит/сек
    Каналы                                   : 2 канала
    Частота                                  : 44,1 КГц
    Метод сжатия                             : С потерями
    Размер потока                            : 88,6 Мбайт (8%)
    Выравнивание                             : Разделение по промежуткам
    Продолжительность промежутка             : 40  мс. (1,00 видеокадр)
    Время предзагрузки промежутка            : 500  мс.
    Библиотека кодирования                   : LAME3.99r
    Настройки программы                      : -m j -V 4 -q 3 -lowpass 18.6 -b 192
    Скриншоты:

    Дополнительные скриншоты:


    Все одноименные релизы в КлубеВремя раздачи: С 18:00 до 23:00 (до появления первых 3-5 скачавших)
    Скачать .torrent

    Скачать торрент-файл бесплатно и на максимальной скорости!

    Как скачивать? · Что такое торрент? · Рейтинг и ограничения

    !ВНИМАНИЕ!
    Сайт не распространяет и не хранит электронные версии произведений, а занимается лишь лишь предоставлением доступа к создаваемому пользователями каталогу ссылок на торрент-файлы, которые содержат только списки хеш-сумм, убедительная просьба с жалобами обращаться напрямую к пользователю. Файлы для обмена на трекере предоставлены пользователями сайта, и администрация не несёт ответственности за их содержание. Просьба не заливать файлы, защищенные авторскими правами, а также файлы нелегального содержания!


    _________________
    [Профиль] [ЛС]
    Показать сообщения:    
    Ответить на тему

    Текущее время: Сегодня, в 19:51

    Часовой пояс: GMT + 2



    Вы не можете начинать темы
    Вы не можете отвечать на сообщения
    Вы не можете редактировать свои сообщения
    Вы не можете удалять свои сообщения
    Вы не можете голосовать в опросах
    Вы не можете прикреплять файлы к сообщениям
    Вы не можете скачивать файлы