BitTorrentTracker PerecTracker.org
BitTorrentTracker PerecTracker.org
    
Регистрация  ·  Вход
 
 · 
Забыли пароль?

  • Праздник непослушания (2015) WEBRip

    Ответить на тему
     
    Автор Сообщение

    Light

    Создавать темы 21-Сен-2016 12:20

           

    [Цитировать]

    - Праздник непослушания (2015) WEBRip -Производство: Россия
    Жанр: Комедия, Семейный
    Режиссер: Федор Попов
    Актеры: Тимофей Разуваев, Платон Тувыкин, Александр Никитин, Таисия Тувыкина, Мария Никитина, Никита Галушко, Мария Попова, Алексей Девотченко, Зоя Никитина, Вера Васильева
    Описание:
    Однажды Артем — московский школьник, увлеченный компьютерными играми и новейшими технологиями, открывает для себя волшебный мир цирка. Несмотря на запреты мамы, мальчик в очередной раз жертвует сном ради сидения перед монитором и становится героем компьютерной игры. Теперь Артему вместе с одноклассниками предстоит пройти увлекательный квест, столкнуться с интригами виртуального цирка, спасти гимнастку Агату и самим спастись от злого волшебника-трюкача Фортуната. Реальная жизнь также преподнесет юным героям ряд испытаний, справляться с которыми ребятам придется без помощи родителей.

    Продолжительность: 01:15:24
    Качество видео: WEBRip
    Видео: Xvid, 720x384, ~2399 Kbps
    Аудио: AC3, 2 ch, 192 Kbps, CBR

    Mediainfo:

    Общее
    Полное имя                               : J:\Prazdnik_Neposlushanija.avi
    Формат                                   : AVI
    Формат/Информация                        : Audio Video Interleave
    Профиль формата                          : OpenDML
    Размер файла                             : 1,37 Гбайт
    Продолжительность                        : 1 ч. 15 м.
    Общий поток                              : 2603 Кбит/сек
    Программа кодирования                    : XviD4PSP 6.0 / 54.29.105
    Видео
    Идентификатор                            : 0
    Формат                                   : xvid
    Идентификатор кодека                     : xvid
    Продолжительность                        : 1 ч. 15 м.
    Битрейт                                  : 2399 Кбит/сек
    Ширина                                   : 720 пикселей
    Высота                                   : 384 пикселя
    Соотношение сторон                       : 1,85:1
    Частота кадров                           : 25,000 кадров/сек
    Тип развёртки                            : Прогрессивная
    Бит/(Пиксели*Кадры)                      : 0.347
    Размер потока                            : 1,26 Гбайт (92%)
    Аудио
    Идентификатор                            : 1
    Формат                                   : AC-3
    Формат/Информация                        : Audio Coding 3
    Расширение режима                        : CM (complete main)
    Параметр Endianness формата              : Big
    Идентификатор кодека                     : 2000
    Продолжительность                        : 1 ч. 15 м.
    Вид битрейта                             : Постоянный
    Битрейт                                  : 192 Кбит/сек
    Каналы                                   : 2 канала
    Расположение каналов                     : Front: L R
    Частота                                  : 48,0 КГц
    Частота кадров                           : 31,250 кадров/сек (1536 spf)
    Битовая глубина                          : 16 бит
    Метод сжатия                             : С потерями
    Размер потока                            : 104 Мбайт (7%)
    Выравнивание                             : Соединение по промежуткам
    Продолжительность промежутка             : 32  мс. (0,80 видеокадр)
    Скриншоты:
    Все одноименные релизы в КлубеВремя раздачи: С 09:00 до 23:30 (до появления первых 3-5 скачавших)
    Скачать .torrent

    Скачать торрент-файл бесплатно и на максимальной скорости!

    Как скачивать? · Что такое торрент? · Рейтинг и ограничения

    !ВНИМАНИЕ!
    Сайт не распространяет и не хранит электронные версии произведений, а занимается лишь лишь предоставлением доступа к создаваемому пользователями каталогу ссылок на торрент-файлы, которые содержат только списки хеш-сумм, убедительная просьба с жалобами обращаться напрямую к пользователю. Файлы для обмена на трекере предоставлены пользователями сайта, и администрация не несёт ответственности за их содержание. Просьба не заливать файлы, защищенные авторскими правами, а также файлы нелегального содержания!


    _________________
    [Профиль] [ЛС]
    Показать сообщения:    
    Ответить на тему

    Текущее время: Сегодня, в 16:35

    Часовой пояс: GMT + 2



    Вы не можете начинать темы
    Вы не можете отвечать на сообщения
    Вы не можете редактировать свои сообщения
    Вы не можете удалять свои сообщения
    Вы не можете голосовать в опросах
    Вы не можете прикреплять файлы к сообщениям
    Вы не можете скачивать файлы