BitTorrentTracker PerecTracker.org
BitTorrentTracker PerecTracker.org
    
Регистрация  ·  Вход
 
 · 
Забыли пароль?

  • Лето с Морошкой (2006) DVB

    Ответить на тему
     
    Автор Сообщение

    Light

    Создавать темы 21-Сен-2016 12:20

           

    [Цитировать]

    - Лето с Морошкой (2006) DVB -Производство: Россия, Югра-фильм
    Жанр: Комедия, Приключения, Семейный
    Режиссер: Ирина Чукомина
    В ролях: Юлия Фрик, Дмитрий Незвинский, Денис Стариков, Алексей Чумбаев, Зоя Лозямова, Алексей Петряков, Олег Родь, Юрий Трифонов, Владимир Меров, Вадим Важенин, Андрей Шевчик
    Описание:
    12-летний Антон приехал на летние каникулы в деревню и встретил свою давнюю подружку Морошку. Она показывает ему мир тайги, обычаи и традиции местного коренного населения. Однажды бабушка Морошки рассказывает старинную легенду народов ханты и манси о Шаман-горе и её сокровищах. Соседские ребятишки, подслушав, начинают искать клад и пропадают. Антон и Морошка отправляются выручать своих друзей…
    Продолжительность: 01:03:53
    Качество видео: DVBRip
    Видео: MPEG-2, 720x544, ~2400 Kbps
    Аудио: MP2, 8 ch, 192 Kbps

    Mediainfo:

    Общее
    Полное имя                               : D:\Leto.s.Moroshkoj.2006.mpeg2.SATRip.mpg
    Формат                                   : MPEG-PS
    Размер файла                             : 1,17 Гбайт
    Продолжительность                        : 1 ч. 3 м.
    Общий поток                              : 2631 Кбит/сек
    Видео
    Идентификатор                            : 224 (0xE0)
    Формат                                   : MPEG Video
    Версия формата                           : Version 2
    Профиль формата                          : Main@Main
    Параметр BVOP формата                    : Да
    Параметр матрицы формата                 : Выборочная
    Параметр GOP формата                     : M=3, N=12
    Структура изображения                    : Frame
    Продолжительность                        : 1 ч. 3 м.
    Битрейт                                  : 2400 Кбит/сек
    Ширина                                   : 720 пикселей
    Высота                                   : 544 пикселя
    Соотношение сторон                       : 4:3
    Частота кадров                           : 25,000 кадров/сек
    Стандарт вещания                         : PAL
    Цветовое пространство                    : YUV
    Субдискретизация насыщенности            : 4:2:0
    Битовая глубина                          : 8 бит
    Тип развёртки                            : Чересстрочная
    Порядок развёртки                        : Верхнее поле первое
    Метод сжатия                             : С потерями
    Бит/(Пиксели*Кадры)                      : 0.245
    Временной код первого кадра              : 00:00:00:00
    Оригинал временного кода                 : Group of pictures header
    GOP, открыто/закрыто                     : Открыто
    GOP, открыто/закрыто на первом кадре     : Закрыто
    Размер потока                            : 1,07 Гбайт (91%)
    Основные цвета                           : BT.601 PAL
    Характеристики трансфера                 : BT.470 System B, BT.470 System G
    Коэффициенты матрицы                     : BT.601
    Аудио
    Идентификатор                            : 192 (0xC0)
    Формат                                   : MPEG Audio
    Версия формата                           : Version 1
    Профиль формата                          : Layer 2
    Режим                                    : Joint stereo
    Расширение режима                        : Intensity Stereo + MS Stereo
    Продолжительность                        : 1 ч. 3 м.
    Вид битрейта                             : Постоянный
    Битрейт                                  : 192 Кбит/сек
    Каналы                                   : 2 канала
    Частота                                  : 48,0 КГц
    Метод сжатия                             : С потерями
    Размер потока                            : 87,7 Мбайт (7%)
    Скриншоты:
    Все одноименные релизы в КлубеВремя раздачи: с 21:00 до 23:00 (до появления первых 3-5 скачавших)
    Скачать .torrent

    Скачать торрент-файл бесплатно и на максимальной скорости!

    Как скачивать? · Что такое торрент? · Рейтинг и ограничения

    !ВНИМАНИЕ!
    Сайт не распространяет и не хранит электронные версии произведений, а занимается лишь лишь предоставлением доступа к создаваемому пользователями каталогу ссылок на торрент-файлы, которые содержат только списки хеш-сумм, убедительная просьба с жалобами обращаться напрямую к пользователю. Файлы для обмена на трекере предоставлены пользователями сайта, и администрация не несёт ответственности за их содержание. Просьба не заливать файлы, защищенные авторскими правами, а также файлы нелегального содержания!


    _________________
    [Профиль] [ЛС]
    Показать сообщения:    
    Ответить на тему

    Текущее время: Сегодня, в 16:21

    Часовой пояс: GMT + 2



    Вы не можете начинать темы
    Вы не можете отвечать на сообщения
    Вы не можете редактировать свои сообщения
    Вы не можете удалять свои сообщения
    Вы не можете голосовать в опросах
    Вы не можете прикреплять файлы к сообщениям
    Вы не можете скачивать файлы