BitTorrentTracker PerecTracker.org
BitTorrentTracker PerecTracker.org
    
Регистрация  ·  Вход
 
 · 
Забыли пароль?

  • Небесный верблюд (2015) HDTVRip

    Ответить на тему
     
    Автор Сообщение

    Light

    Создавать темы 21-Сен-2016 12:20

           

    [Цитировать]

    - Небесный верблюд (2015) HDTVRip -Производство: Россия
    Жанр: детский, семейный
    Режиссер: Юрий Фетинг
    Актеры: Михаил Гасанов, Виктор Сухоруков, Пётр Новиков, Ирина Хургунова, Данзан Бадрашкиев, Цеден Конаев, Батр Манджиев, Баира Манджиева, Виталий Махов
    Описание:
    Калмыки говорят, что облако в виде верблюда приносит удачу. Под таким облаком родился белый верблюжонок Алтынка. На съемках фильма случайно гибнет белый верблюжонок. Срочно нужен дублер. Киноадминистратор приезжает на дальнюю степную стоянку бедного чабана Доржи. Алтынка продан. Верблюдица-мать бежит в степь на поиски своего сына. 12-летний Баир — сын Доржи садится на старый папин мотоцикл и отправляется в степь на поиски верблюдицы.

    Возраст: 0+ (для любой зрительской аудитории)
    Продолжительность: 01:26:27
    Качество видео: HDTVRip
    Реклама: Отсутствует.
    Видео: Xvid, 720x304, 1977 Kbps
    Аудио: AC3, 2 ch, 256 Kbps

    Mediainfo:

    Небесный.верблюд.2015.HDTVRip.avi
    Format                      : AVI
    Format/Info                 : Audio Video Interleave
    Format profile              : OpenDML
    File size                   : 1.36 GiB
    Duration                    : 1 h 26 min
    Overall bit rate            : 2 245 kb/s
    Writing application         : XviD4PSP 6.0 / 54.29.105
    Video
    ID                          : 0
    Format                      : xvid
    Codec ID                    : xvid
    Duration                    : 1 h 26 min
    Bit rate                    : 1 977 kb/s
    Width                       : 720 pixels
    Height                      : 304 pixels
    Display aspect ratio        : 2.40:1
    Frame rate                  : 25.000 FPS
    Scan type                   : Progressive
    Bits/(Pixel*Frame)          : 0.361
    Stream size                 : 1.19 GiB (88%)
    Audio
    ID                          : 1
    Format                      : AC-3
    Format/Info                 : Audio Coding 3
    Mode extension              : CM (complete main)
    Format settings, Endianness : Big
    Codec ID                    : 2000
    Duration                    : 1 h 26 min
    Bit rate mode               : Constant
    Bit rate                    : 256 kb/s
    Channel(s)                  : 2 channels
    Channel positions           : Front: L R
    Sampling rate               : 44.1 kHz
    Frame rate                  : 28.711 FPS (1536 spf)
    Bit depth                   : 16 bits
    Compression mode            : Lossy
    Stream size                 : 158 MiB (11%)
    Alignment                   : Aligned on interleaves
    Interleave, duration        : 35  ms (0.87 video frame)
    Скриншоты:
    Все одноименные релизы в КлубеВремя раздачи: 24/7 (до появления первых 3-5 скачавших)
    Скачать .torrent

    Скачать торрент-файл бесплатно и на максимальной скорости!

    Как скачивать? · Что такое торрент? · Рейтинг и ограничения

    !ВНИМАНИЕ!
    Сайт не распространяет и не хранит электронные версии произведений, а занимается лишь лишь предоставлением доступа к создаваемому пользователями каталогу ссылок на торрент-файлы, которые содержат только списки хеш-сумм, убедительная просьба с жалобами обращаться напрямую к пользователю. Файлы для обмена на трекере предоставлены пользователями сайта, и администрация не несёт ответственности за их содержание. Просьба не заливать файлы, защищенные авторскими правами, а также файлы нелегального содержания!


    _________________
    [Профиль] [ЛС]
    Показать сообщения:    
    Ответить на тему

    Текущее время: Сегодня, в 10:10

    Часовой пояс: GMT + 2



    Вы не можете начинать темы
    Вы не можете отвечать на сообщения
    Вы не можете редактировать свои сообщения
    Вы не можете удалять свои сообщения
    Вы не можете голосовать в опросах
    Вы не можете прикреплять файлы к сообщениям
    Вы не можете скачивать файлы