BitTorrentTracker PerecTracker.org
BitTorrentTracker PerecTracker.org
    
Регистрация  ·  Вход
 
 · 
Забыли пароль?

  • Байкальские каникулы (2015) WEB-DLRip

    Ответить на тему
     
    Автор Сообщение

    Light

    Создавать темы 21-Сен-2016 12:20

           

    [Цитировать]

    - Байкальские каникулы (2015) WEB-DLRip -Производство: Россия
    Жанр: Комедия, Семейный
    Режиссер: Анастасия Немчинова, Ольга Бутакова, Артем Бурлов
    Актеры: Иван Кузнецов, Александр Кыштымов, Виктор Тетерин, Лена Усольцева, Сергей Ершов, Амаду Мамадаков, Чимит Жамьянов, Виктор Малышенко, Наталия Мельникова, Анастасия Гусева, Анна Щербакова, Александр Михалев
    Описание:
    Коля Голиков обычный мальчик, который предпочитает общению гаджеты, а друзьям социальные сети. Впервые в своей жизни отправился в детский лагерь на берегу Байкала. Жизнь в отряде не нравится Коле. Ребята не могут найти общий язык. Зато он узнает, что на этом месте давным-давно был другой лагерь. Тоже детский только пионерский. А еще он узнает, что пионеры оставляли капсулы времени — специальные послания будущим поколениям. Наш герой находит капсулу с посланием 1985 года от пионера Саши Филлипова. Приключения начинаются.

    Возраст: 0+ (для любой зрительской аудитории)
    Продолжительность: 01:24:18
    Качество видео: WEB-DLRip
    Видео: Xvid, 720x304, 2191 Kb/s
    Аудио: AC3, 2 ch, 256 Kb/s

    Mediainfo:

    Baykalskie kanikuli (2016) WEB-DLRip.avi
    Format                      : AVI
    Format/Info                 : Audio Video Interleave
    Format profile              : OpenDML
    File size                   : 1.45 GiB
    Duration                    : 1 h 24 min
    Overall bit rate            : 2 458 kb/s
    Writing application         : XviD4PSP 6.0 / 54.29.105
    Video
    ID                          : 0
    Format                      : xvid
    Codec ID                    : xvid
    Duration                    : 1 h 24 min
    Bit rate                    : 2 191 kb/s
    Width                       : 720 pixels
    Height                      : 304 pixels
    Display aspect ratio        : 2.35:1
    Frame rate                  : 24.000 FPS
    Scan type                   : Progressive
    Bits/(Pixel*Frame)          : 0.417
    Stream size                 : 1.29 GiB (89%)
    Audio
    ID                          : 1
    Format                      : AC-3
    Format/Info                 : Audio Coding 3
    Mode extension              : CM (complete main)
    Format settings, Endianness : Big
    Codec ID                    : 2000
    Duration                    : 1 h 24 min
    Bit rate mode               : Constant
    Bit rate                    : 256 kb/s
    Channel(s)                  : 2 channels
    Channel positions           : Front: L R
    Sampling rate               : 44.1 kHz
    Frame rate                  : 28.711 FPS (1536 spf)
    Bit depth                   : 16 bits
    Compression mode            : Lossy
    Stream size                 : 154 MiB (10%)
    Alignment                   : Aligned on interleaves
    Interleave, duration        : 35  ms (0.84 video frame)
    Скриншоты:
    Все одноименные релизы в КлубеВремя раздачи: 24/7 (до появления первых 3-5 скачавших)
    Скачать .torrent

    Скачать торрент-файл бесплатно и на максимальной скорости!

    Как скачивать? · Что такое торрент? · Рейтинг и ограничения

    !ВНИМАНИЕ!
    Сайт не распространяет и не хранит электронные версии произведений, а занимается лишь лишь предоставлением доступа к создаваемому пользователями каталогу ссылок на торрент-файлы, которые содержат только списки хеш-сумм, убедительная просьба с жалобами обращаться напрямую к пользователю. Файлы для обмена на трекере предоставлены пользователями сайта, и администрация не несёт ответственности за их содержание. Просьба не заливать файлы, защищенные авторскими правами, а также файлы нелегального содержания!


    _________________
    [Профиль] [ЛС]
    Показать сообщения:    
    Ответить на тему

    Текущее время: Сегодня, в 11:41

    Часовой пояс: GMT + 2



    Вы не можете начинать темы
    Вы не можете отвечать на сообщения
    Вы не можете редактировать свои сообщения
    Вы не можете удалять свои сообщения
    Вы не можете голосовать в опросах
    Вы не можете прикреплять файлы к сообщениям
    Вы не можете скачивать файлы