BitTorrentTracker PerecTracker.org
BitTorrentTracker PerecTracker.org
    
Регистрация  ·  Вход
 
 · 
Забыли пароль?

  • Мои каникулы (1973) TVRip

    Ответить на тему
     
    Автор Сообщение

    Light

    Создавать темы 21-Сен-2016 12:20

           

    [Цитировать]

    - Мои каникулы (1973) TVRip -Производство: СССР, Грузия-фильм
    Жанр: Детский, Семейный, Комедия, Музыкальный
    Режиссер: Ираклий Асатиани
    Актеры: Шалва Херхеулидзе, Михаил Кинцурашвили, Леомер Гугушвили, Лео Сохашвили, Иванэ (Вано) Сакварелидзе
    Описание:
    Вернувшись с летних каникул, городской мальчик в классе рассказывает о своих приключениях в деревне. Старый фотограф Малакия "превратил" мирных жителей небольшого городка в бесстрашных охотников на диких зверей с помощью фотоснимков. Однако подвиги самого Малакия оказались сомнительными после его неудачной охоты на уток.

    Продолжительность: 00:22:59
    Качество видео: TVRip
    Видео: Xvid, 720х544, ~766 Kbps
    Аудио: MP3, 2 ch, 117 Kbps

    Mediainfo:

    Общее
    Полное имя                               : F:\Moi kanikuli.avi
    Формат                                   : AVI
    Формат/Информация                        : Audio Video Interleave
    Размер файла                             : 148 Мбайт
    Продолжительность                        : 23 м. 2 с.
    Режим общего битрейта                    : Переменный
    Общий поток                              : 896 Кбит/сек
    Программа кодирования                    : MEncoder r33883
    Библиотека кодирования                   : MPlayer
    Видео
    Идентификатор                            : 0
    Формат                                   : MPEG-4 Visual
    Профиль формата                          : Simple@L3
    Параметр BVOP формата                    : Нет
    Параметр QPel формата                    : Нет
    Параметр GMC формата                     : Без точки перехода
    Параметр матрицы формата                 : Default (H.263)
    Идентификатор кодека                     : XVID
    Идентификатор кодека/Подсказка           : XviD
    Продолжительность                        : 23 м. 2 с.
    Битрейт                                  : 766 Кбит/сек
    Ширина                                   : 720 пикселей
    Высота                                   : 544 пикселя
    Соотношение сторон                       : 4:3
    Частота кадров                           : 25,000 кадров/сек
    Цветовое пространство                    : YUV
    Субдискретизация насыщенности            : 4:2:0
    Битовая глубина                          : 8 бит
    Тип развёртки                            : Прогрессивная
    Метод сжатия                             : С потерями
    Бит/(Пиксели*Кадры)                      : 0.078
    Размер потока                            : 126 Мбайт (85%)
    Библиотека кодирования                   : XviD 63
    Аудио
    Идентификатор                            : 1
    Формат                                   : MPEG Audio
    Версия формата                           : Version 1
    Профиль формата                          : Layer 3
    Режим                                    : Joint stereo
    Расширение режима                        : MS Stereo
    Идентификатор кодека                     : 55
    Идентификатор кодека/Подсказка           : MP3
    Продолжительность                        : 23 м. 2 с.
    Вид битрейта                             : Переменный
    Битрейт                                  : 117 Кбит/сек
    Каналы                                   : 2 канала
    Частота                                  : 44,1 КГц
    Метод сжатия                             : С потерями
    Размер потока                            : 19,3 Мбайт (13%)
    Выравнивание                             : Соединение по промежуткам
    Продолжительность промежутка             : 26  мс. (0,65 видеокадр)
    Время предзагрузки промежутка            : 461  мс.
    Скриншоты:
    Скачать .torrent

    Скачать торрент-файл бесплатно и на максимальной скорости!

    Как скачивать? · Что такое торрент? · Рейтинг и ограничения

    !ВНИМАНИЕ!
    Сайт не распространяет и не хранит электронные версии произведений, а занимается лишь лишь предоставлением доступа к создаваемому пользователями каталогу ссылок на торрент-файлы, которые содержат только списки хеш-сумм, убедительная просьба с жалобами обращаться напрямую к пользователю. Файлы для обмена на трекере предоставлены пользователями сайта, и администрация не несёт ответственности за их содержание. Просьба не заливать файлы, защищенные авторскими правами, а также файлы нелегального содержания!


    _________________
    [Профиль] [ЛС]
    Показать сообщения:    
    Ответить на тему

    Текущее время: Сегодня, в 08:51

    Часовой пояс: GMT + 2



    Вы не можете начинать темы
    Вы не можете отвечать на сообщения
    Вы не можете редактировать свои сообщения
    Вы не можете удалять свои сообщения
    Вы не можете голосовать в опросах
    Вы не можете прикреплять файлы к сообщениям
    Вы не можете скачивать файлы