BitTorrentTracker PerecTracker.org
BitTorrentTracker PerecTracker.org
    
Регистрация  ·  Вход
 
 · 
Забыли пароль?

  • Гостья из будущего + Лиловый шар (1984-1987) DVDRip [H.264]

    Ответить на тему
     
    Автор Сообщение

    Light

    Создавать темы 21-Сен-2016 10:38

           

    [Цитировать]

    Гостья из будущего (1984) + Лиловый шар (1987) DVDRip--Гостья из будущего (1984) DVDRip-А Вы откуда? Альфа Центавра знаешь? Тамошния...-Русское название: Гостья из будущего
    Год выпуска: 1984
    Жанр: Фантастика, Приключения, Семейный
    Описание фильма:
    Кино, ставшее откровением для детей и подростков середины 80-ых, которые тогда еще не были избалованы хорошим отечественным фантастическим кино вообще и детским кино этого жанра в частности.
    Борьба с космическими пиратами, захватывающее путешествие во времени, знакомство с девочкой из будущего Алисой Селезневой — вот к чему привел обычный поход за кефиром мальчика Колю из 6 — Б класса...
    Фильм поставлен по мотивам фантастического романа Кира Булычева «Сто лет тому вперед».
    Режиссер: Павел Арсенов
    Актеры: Наташа Гусева, Алеша Фомкин, Илюша Наумов, Вячеслав Невинный, Михаил Кононов, Елена Метелкина, Евгений Герасимов, Владимир Носик, Игорь Ясулович, Владимир Харитонов, Елена Перова, Андрей Жиров, Елена Цыплакова, Марьяна Ионесян, Вячеслав Баранов, Наталья Варлей, Мария Стерникова, Татьяна Божок, Екатерина Васильева, Андрей Градов, Георгий Бурков, Валентина Талызина, Людмила Аринина, Юрий Григорьев, Борис Щербаков, Рубен Симонов
    Продолжительность: 05:17:09 (01:03:28 + 01:03:51 + 01:03:11 + 01:03:28 + 01:03:11)

    Дата премьеры в СССР: 25 марта 1985
    Дата выхода релиза на DVD: 1 июля 2010, «Ruscico»
    Субтитры: Русские
    Вид субтитров: Вшитые отключаемые
    Видеокодек: MPEG-4 AVC/H.264
    Битрейт видео: ~1490 Кбит/сек
    Размер кадра: 720x544 (1.324:1)
    Качество видео: DVDRip
    Аудиокодек: AC3, 448 Кбит/сек, 6 каналов, 48,0 КГц

    Сэмплы:

    1-я серия:
    2-я серия:
    3-я серия:
    4-я серия:
    5-я серия:

    1-я серия:

    Общее
    Уникальный идентификатор : 189715066861201506051785832505280447827 (0x8EB9CAF60D13435D81EEF2F2945E4553)
    Полное имя : ...\Гостья_из_будущего_[NNM-Club.ru]\Гостья из будущего (1).mkv
    Формат : Matroska
    Версия формата : Version 2
    Размер файла : 881 Мбайт
    Продолжительность : 1 ч. 3 м.
    Общий поток : 1940 Кбит/сек
    Название фильма : Гостья из будущего (1984) 1-я серия
    Дата кодирования : UTC 2012-01-06 16:48:24
    Программа кодирования : mkvmerge v5.2.1 ('A Far Off Place') built on Jan 2 2012 23:21:10
    Библиотека кодирования : libebml v1.2.3 + libmatroska v1.3.0
    Видео
    Идентификатор : 1
    Формат : AVC
    Формат/Информация : Advanced Video Codec
    Профиль формата : [url=mailto:High@L3.1]High@L3.1[/url]
    Параметр CABAC формата : Да
    Параметр ReFrames формата : 4 кадра
    Идентификатор кодека : V_MPEG4/ISO/AVC
    Продолжительность : 1 ч. 3 м.
    Битрейт : 1490 Кбит/сек
    Ширина : 720 пикселей
    Высота : 544 пикселя
    Соотношение сторон : 4:3
    Частота кадров : 25,000 кадров/сек
    Цветовое пространство : YUV
    Субдискретизация насыщенности : 4:2:0
    Битовая глубина : 8 бит
    Тип развёртки : Прогрессивная
    Бит/(Пиксели*Кадры) : 0.152
    Размер потока : 660 Мбайт (75%)
    Заголовок : Гостья из будущего (1984) 1-я серия
    Библиотека кодирования : x264 core 115 r1995 c1e60b9
    Настройки программы : cabac=1 / ref=3 / deblock=1:-1:-1 / analyse=0x3:0x113 / me=umh / subme=7 / psy=1 / psy_rd=1.00:0.15 / mixed_ref=1 / me_range=32 / chroma_me=1 / trellis=1 / 8x8dct=1 / cqm=0 / deadzone=21,11 / fast_pskip=1 / chroma_qp_offset=-3 / threads=6 / sliced_threads=0 / nr=0 / decimate=1 / interlaced=0 / bluray_compat=0 / constrained_intra=0 / bframes=3 / b_pyramid=2 / b_adapt=1 / b_bias=0 / direct=1 / weightb=1 / open_gop=0 / weightp=2 / keyint=250 / keyint_min=25 / scenecut=40 / intra_refresh=0 / rc_lookahead=40 / rc=2pass / mbtree=1 / bitrate=1490 / ratetol=1.0 / qcomp=0.60 / qpmin=0 / qpmax=69 / qpstep=4 / cplxblur=20.0 / qblur=0.5 / vbv_maxrate=17500 / vbv_bufsize=14000 / nal_hrd=none / ip_ratio=1.40 / aq=1:1.00
    Язык : Russian
    Default : Да
    Forced : Нет
    Аудио
    Идентификатор : 2
    Формат : AC-3
    Формат/Информация : Audio Coding 3
    Расширение режима : CM (complete main)
    Идентификатор кодека : A_AC3
    Продолжительность : 1 ч. 3 м.
    Вид битрейта : Постоянный
    Битрейт : 448 Кбит/сек
    Каналы : 6 каналов
    Расположение каналов : Front: L C R, Side: L R, LFE
    Частота : 48,0 КГц
    Битовая глубина : 16 бит
    Метод сжатия : С потерями
    Размер потока : 203 Мбайт (23%)
    Заголовок : AC3, 48.0 KHz, 6 channels (Front: L C R, Surround: L R, LFE), 448 Kbps, CBR
    Язык : Russian
    Default : Да
    Forced : Нет
    Текст
    Идентификатор : 3
    Формат : UTF-8
    Идентификатор кодека : S_TEXT/UTF8
    Идентификатор кодека/Информация : UTF-8 Plain Text
    Заголовок : Субтитры: Русские
    Язык : Russian
    Default : Нет
    Forced : Нет

    2-я серия:

    Общее
    Уникальный идентификатор : 218812683089856246030094068758522734254 (0xA49DCA3418FECF588A135F4AE3ADA6AE)
    Полное имя : ...\Гостья_из_будущего_[NNM-Club.ru]\Гостья из будущего (2).mkv
    Формат : Matroska
    Версия формата : Version 2
    Размер файла : 881 Мбайт
    Продолжительность : 1 ч. 3 м.
    Общий поток : 1929 Кбит/сек
    Название фильма : Гостья из будущего (1984) 2-я серия
    Дата кодирования : UTC 2012-01-06 16:57:23
    Программа кодирования : mkvmerge v5.2.1 ('A Far Off Place') built on Jan 2 2012 23:21:10
    Библиотека кодирования : libebml v1.2.3 + libmatroska v1.3.0
    Видео
    Идентификатор : 1
    Формат : AVC
    Формат/Информация : Advanced Video Codec
    Профиль формата : [url=mailto:High@L3.1]High@L3.1[/url]
    Параметр CABAC формата : Да
    Параметр ReFrames формата : 4 кадра
    Идентификатор кодека : V_MPEG4/ISO/AVC
    Продолжительность : 1 ч. 3 м.
    Битрейт : 1479 Кбит/сек
    Ширина : 720 пикселей
    Высота : 544 пикселя
    Соотношение сторон : 4:3
    Частота кадров : 25,000 кадров/сек
    Цветовое пространство : YUV
    Субдискретизация насыщенности : 4:2:0
    Битовая глубина : 8 бит
    Тип развёртки : Прогрессивная
    Бит/(Пиксели*Кадры) : 0.151
    Размер потока : 659 Мбайт (75%)
    Заголовок : Гостья из будущего (1984) 2-я серия
    Библиотека кодирования : x264 core 115 r1995 c1e60b9
    Настройки программы : cabac=1 / ref=3 / deblock=1:-1:-1 / analyse=0x3:0x113 / me=umh / subme=7 / psy=1 / psy_rd=1.00:0.15 / mixed_ref=1 / me_range=32 / chroma_me=1 / trellis=1 / 8x8dct=1 / cqm=0 / deadzone=21,11 / fast_pskip=1 / chroma_qp_offset=-3 / threads=6 / sliced_threads=0 / nr=0 / decimate=1 / interlaced=0 / bluray_compat=0 / constrained_intra=0 / bframes=3 / b_pyramid=2 / b_adapt=1 / b_bias=0 / direct=1 / weightb=1 / open_gop=0 / weightp=2 / keyint=250 / keyint_min=25 / scenecut=40 / intra_refresh=0 / rc_lookahead=40 / rc=2pass / mbtree=1 / bitrate=1479 / ratetol=1.0 / qcomp=0.60 / qpmin=0 / qpmax=69 / qpstep=4 / cplxblur=20.0 / qblur=0.5 / vbv_maxrate=17500 / vbv_bufsize=14000 / nal_hrd=none / ip_ratio=1.40 / aq=1:1.00
    Язык : Russian
    Default : Да
    Forced : Нет
    Аудио
    Идентификатор : 2
    Формат : AC-3
    Формат/Информация : Audio Coding 3
    Расширение режима : CM (complete main)
    Идентификатор кодека : A_AC3
    Продолжительность : 1 ч. 3 м.
    Вид битрейта : Постоянный
    Битрейт : 448 Кбит/сек
    Каналы : 6 каналов
    Расположение каналов : Front: L C R, Side: L R, LFE
    Частота : 48,0 КГц
    Битовая глубина : 16 бит
    Метод сжатия : С потерями
    Размер потока : 205 Мбайт (23%)
    Заголовок : AC3, 48.0 KHz, 6 channels (Front: L C R, Surround: L R, LFE), 448 Kbps, CBR
    Язык : Russian
    Default : Да
    Forced : Нет
    Текст
    Идентификатор : 3
    Формат : UTF-8
    Идентификатор кодека : S_TEXT/UTF8
    Идентификатор кодека/Информация : UTF-8 Plain Text
    Заголовок : Субтитры: Русские
    Язык : Russian
    Default : Нет
    Forced : Нет

    3-я серия:

    Общее
    Уникальный идентификатор : 196804240935368998032971488977400747209 (0x940F1E3A7D602C08B85F6739816DD4C9)
    Полное имя : ...\Гостья_из_будущего_[NNM-Club.ru]\Гостья из будущего (3).mkv
    Формат : Matroska
    Версия формата : Version 2
    Размер файла : 881 Мбайт
    Продолжительность : 1 ч. 3 м.
    Общий поток : 1949 Кбит/сек
    Название фильма : Гостья из будущего (1984) 3-я серия
    Дата кодирования : UTC 2012-01-06 17:01:11
    Программа кодирования : mkvmerge v5.2.1 ('A Far Off Place') built on Jan 2 2012 23:21:10
    Библиотека кодирования : libebml v1.2.3 + libmatroska v1.3.0
    Видео
    Идентификатор : 1
    Формат : AVC
    Формат/Информация : Advanced Video Codec
    Профиль формата : [url=mailto:High@L3.1]High@L3.1[/url]
    Параметр CABAC формата : Да
    Параметр ReFrames формата : 4 кадра
    Идентификатор кодека : V_MPEG4/ISO/AVC
    Продолжительность : 1 ч. 3 м.
    Битрейт : 1499 Кбит/сек
    Ширина : 720 пикселей
    Высота : 544 пикселя
    Соотношение сторон : 4:3
    Частота кадров : 25,000 кадров/сек
    Цветовое пространство : YUV
    Субдискретизация насыщенности : 4:2:0
    Битовая глубина : 8 бит
    Тип развёртки : Прогрессивная
    Бит/(Пиксели*Кадры) : 0.153
    Размер потока : 661 Мбайт (75%)
    Заголовок : Гостья из будущего (1984) 3-я серия
    Библиотека кодирования : x264 core 115 r1995 c1e60b9
    Настройки программы : cabac=1 / ref=3 / deblock=1:-1:-1 / analyse=0x3:0x113 / me=umh / subme=7 / psy=1 / psy_rd=1.00:0.15 / mixed_ref=1 / me_range=32 / chroma_me=1 / trellis=1 / 8x8dct=1 / cqm=0 / deadzone=21,11 / fast_pskip=1 / chroma_qp_offset=-3 / threads=6 / sliced_threads=0 / nr=0 / decimate=1 / interlaced=0 / bluray_compat=0 / constrained_intra=0 / bframes=3 / b_pyramid=2 / b_adapt=1 / b_bias=0 / direct=1 / weightb=1 / open_gop=0 / weightp=2 / keyint=250 / keyint_min=25 / scenecut=40 / intra_refresh=0 / rc_lookahead=40 / rc=2pass / mbtree=1 / bitrate=1499 / ratetol=1.0 / qcomp=0.60 / qpmin=0 / qpmax=69 / qpstep=4 / cplxblur=20.0 / qblur=0.5 / vbv_maxrate=17500 / vbv_bufsize=14000 / nal_hrd=none / ip_ratio=1.40 / aq=1:1.00
    Язык : Russian
    Default : Да
    Forced : Нет
    Аудио
    Идентификатор : 2
    Формат : AC-3
    Формат/Информация : Audio Coding 3
    Расширение режима : CM (complete main)
    Идентификатор кодека : A_AC3
    Продолжительность : 1 ч. 3 м.
    Вид битрейта : Постоянный
    Битрейт : 448 Кбит/сек
    Каналы : 6 каналов
    Расположение каналов : Front: L C R, Side: L R, LFE
    Частота : 48,0 КГц
    Битовая глубина : 16 бит
    Метод сжатия : С потерями
    Размер потока : 202 Мбайт (23%)
    Заголовок : AC3, 48.0 KHz, 6 channels (Front: L C R, Surround: L R, LFE), 448 Kbps, CBR
    Язык : Russian
    Default : Да
    Forced : Нет
    Текст
    Идентификатор : 3
    Формат : UTF-8
    Идентификатор кодека : S_TEXT/UTF8
    Идентификатор кодека/Информация : UTF-8 Plain Text
    Заголовок : Субтитры: Русские
    Язык : Russian
    Default : Нет
    Forced : Нет

    4-я серия:

    Общее
    Уникальный идентификатор : 230125081951742159995057718240241148194 (0xAD207A876671C5FBB9C216FAA3AE6122)
    Полное имя : ...\Гостья_из_будущего_[NNM-Club.ru]\Гостья из будущего (4).mkv
    Формат : Matroska
    Версия формата : Version 2
    Размер файла : 881 Мбайт
    Продолжительность : 1 ч. 3 м.
    Общий поток : 1940 Кбит/сек
    Название фильма : Гостья из будущего (1984) 4-я серия
    Дата кодирования : UTC 2012-01-06 17:04:30
    Программа кодирования : mkvmerge v5.2.1 ('A Far Off Place') built on Jan 2 2012 23:21:10
    Библиотека кодирования : libebml v1.2.3 + libmatroska v1.3.0
    Видео
    Идентификатор : 1
    Формат : AVC
    Формат/Информация : Advanced Video Codec
    Профиль формата : [url=mailto:High@L3.1]High@L3.1[/url]
    Параметр CABAC формата : Да
    Параметр ReFrames формата : 4 кадра
    Идентификатор кодека : V_MPEG4/ISO/AVC
    Продолжительность : 1 ч. 3 м.
    Битрейт : 1490 Кбит/сек
    Ширина : 720 пикселей
    Высота : 544 пикселя
    Соотношение сторон : 4:3
    Частота кадров : 25,000 кадров/сек
    Цветовое пространство : YUV
    Субдискретизация насыщенности : 4:2:0
    Битовая глубина : 8 бит
    Тип развёртки : Прогрессивная
    Бит/(Пиксели*Кадры) : 0.152
    Размер потока : 660 Мбайт (75%)
    Заголовок : Гостья из будущего (1984) 4-я серия
    Библиотека кодирования : x264 core 115 r1995 c1e60b9
    Настройки программы : cabac=1 / ref=3 / deblock=1:-1:-1 / analyse=0x3:0x113 / me=umh / subme=7 / psy=1 / psy_rd=1.00:0.15 / mixed_ref=1 / me_range=32 / chroma_me=1 / trellis=1 / 8x8dct=1 / cqm=0 / deadzone=21,11 / fast_pskip=1 / chroma_qp_offset=-3 / threads=6 / sliced_threads=0 / nr=0 / decimate=1 / interlaced=0 / bluray_compat=0 / constrained_intra=0 / bframes=3 / b_pyramid=2 / b_adapt=1 / b_bias=0 / direct=1 / weightb=1 / open_gop=0 / weightp=2 / keyint=250 / keyint_min=25 / scenecut=40 / intra_refresh=0 / rc_lookahead=40 / rc=2pass / mbtree=1 / bitrate=1490 / ratetol=1.0 / qcomp=0.60 / qpmin=0 / qpmax=69 / qpstep=4 / cplxblur=20.0 / qblur=0.5 / vbv_maxrate=17500 / vbv_bufsize=14000 / nal_hrd=none / ip_ratio=1.40 / aq=1:1.00
    Язык : Russian
    Default : Да
    Forced : Нет
    Аудио
    Идентификатор : 2
    Формат : AC-3
    Формат/Информация : Audio Coding 3
    Расширение режима : CM (complete main)
    Идентификатор кодека : A_AC3
    Продолжительность : 1 ч. 3 м.
    Вид битрейта : Постоянный
    Битрейт : 448 Кбит/сек
    Каналы : 6 каналов
    Расположение каналов : Front: L C R, Side: L R, LFE
    Частота : 48,0 КГц
    Битовая глубина : 16 бит
    Метод сжатия : С потерями
    Размер потока : 203 Мбайт (23%)
    Заголовок : AC3, 48.0 KHz, 6 channels (Front: L C R, Surround: L R, LFE), 448 Kbps, CBR
    Язык : Russian
    Default : Да
    Forced : Нет
    Текст
    Идентификатор : 3
    Формат : UTF-8
    Идентификатор кодека : S_TEXT/UTF8
    Идентификатор кодека/Информация : UTF-8 Plain Text
    Заголовок : Субтитры: Русские
    Язык : Russian
    Default : Нет
    Forced : Нет

    5-я серия:

    Общее
    Уникальный идентификатор : 182150901893392282360215069477878127340 (0x8908FCD5ABCEAD3788B7542AA7D45AEC)
    Полное имя : ...\Гостья_из_будущего_[NNM-Club.ru]\Гостья из будущего (5).mkv
    Формат : Matroska
    Версия формата : Version 2
    Размер файла : 881 Мбайт
    Продолжительность : 1 ч. 3 м.
    Общий поток : 1949 Кбит/сек
    Название фильма : Гостья из будущего (1984) 5-я серия
    Дата кодирования : UTC 2012-01-06 17:07:40
    Программа кодирования : mkvmerge v5.2.1 ('A Far Off Place') built on Jan 2 2012 23:21:10
    Библиотека кодирования : libebml v1.2.3 + libmatroska v1.3.0
    Видео
    Идентификатор : 1
    Формат : AVC
    Формат/Информация : Advanced Video Codec
    Профиль формата : [url=mailto:High@L3.1]High@L3.1[/url]
    Параметр CABAC формата : Да
    Параметр ReFrames формата : 4 кадра
    Идентификатор кодека : V_MPEG4/ISO/AVC
    Продолжительность : 1 ч. 3 м.
    Битрейт : 1499 Кбит/сек
    Ширина : 720 пикселей
    Высота : 544 пикселя
    Соотношение сторон : 4:3
    Частота кадров : 25,000 кадров/сек
    Цветовое пространство : YUV
    Субдискретизация насыщенности : 4:2:0
    Битовая глубина : 8 бит
    Тип развёртки : Прогрессивная
    Бит/(Пиксели*Кадры) : 0.153
    Размер потока : 661 Мбайт (75%)
    Заголовок : Гостья из будущего (1984) 5-я серия
    Библиотека кодирования : x264 core 115 r1995 c1e60b9
    Настройки программы : cabac=1 / ref=3 / deblock=1:-1:-1 / analyse=0x3:0x113 / me=umh / subme=7 / psy=1 / psy_rd=1.00:0.15 / mixed_ref=1 / me_range=32 / chroma_me=1 / trellis=1 / 8x8dct=1 / cqm=0 / deadzone=21,11 / fast_pskip=1 / chroma_qp_offset=-3 / threads=6 / sliced_threads=0 / nr=0 / decimate=1 / interlaced=0 / bluray_compat=0 / constrained_intra=0 / bframes=3 / b_pyramid=2 / b_adapt=1 / b_bias=0 / direct=1 / weightb=1 / open_gop=0 / weightp=2 / keyint=250 / keyint_min=25 / scenecut=40 / intra_refresh=0 / rc_lookahead=40 / rc=2pass / mbtree=1 / bitrate=1499 / ratetol=1.0 / qcomp=0.60 / qpmin=0 / qpmax=69 / qpstep=4 / cplxblur=20.0 / qblur=0.5 / vbv_maxrate=17500 / vbv_bufsize=14000 / nal_hrd=none / ip_ratio=1.40 / aq=1:1.00
    Язык : Russian
    Default : Да
    Forced : Нет
    Аудио
    Идентификатор : 2
    Формат : AC-3
    Формат/Информация : Audio Coding 3
    Расширение режима : CM (complete main)
    Идентификатор кодека : A_AC3
    Продолжительность : 1 ч. 3 м.
    Вид битрейта : Постоянный
    Битрейт : 448 Кбит/сек
    Каналы : 6 каналов
    Расположение каналов : Front: L C R, Side: L R, LFE
    Частота : 48,0 КГц
    Битовая глубина : 16 бит
    Метод сжатия : С потерями
    Размер потока : 202 Мбайт (23%)
    Заголовок : AC3, 48.0 KHz, 6 channels (Front: L C R, Surround: L R, LFE), 448 Kbps, CBR
    Язык : Russian
    Default : Да
    Forced : Нет
    Текст
    Идентификатор : 3
    Формат : UTF-8
    Идентификатор кодека : S_TEXT/UTF8
    Идентификатор кодека/Информация : UTF-8 Plain Text
    Заголовок : Субтитры: Русские
    Язык : Russian
    Default : Нет
    Forced : Нет

    Знаете ли вы, что...

    • Актер Алексей Фомкин (роль Коли Герасимова) трагически погиб в 1996 году в результате несчастного случая (погиб при пожаре).
    • В сцене, где Алиса выходит из подъезда с подругой в виде «двухэтажного человека» чтобы убежать от пиратов, в действительности Наташа Гусева сидит на плечах не Марьяны, а Алёши Фомкина, который играл роль Коли Герасимова. Его для этого специально переодели в школьное платье и гольфы. Под плащём Алёша ничего не видел и команды ему подавала сама Наташа. Сюжет снимали весь день.
    • Когда Вертер и Коля проходят мимо «института времени» (1-я серия, середина) их отражения отчетливо видны в стеклянных цилиндрах, что свидетельствует о том, что пластмассовый макет просто висит перед камерой. Особенно хорошо это видно во второй серии, в кратком содержании первой.
    • Если перевернуть фразу на «непонятном языке» системы Стрельца, которую говорит во второй серии профессор Селезнёв Крысу, получится «От топота копыт пыль по полю летит».
    Скриншоты: --Лиловый шар (1987) DVDRip-Русское название: Гостья из будущего
    Год выпуска: 1987
    Жанр: Фантастика, Приключения, Семейный
    Описание фильма:
    Этот фильм — приемник и продолжатель сериала «Гостья из будущего».
    Сказочная история, произошедшая в 21 веке. Экипаж космического корабля обнаруживает в заброшенной инопланетной станции данные о доставленном на Землю много тысяч лет назад лиловом шаре, в котором находится вирус вражды.
    Этот вирус может привести к гибели людей. Героиня фильма — бесстрашная девочка Алиса на машине времени отправляется в эпоху легенд, чтобы найти и обезвредить лиловый шар...
    Режиссер: Павел Арсенов
    Актеры: Наташа Гусева, Саша Гусев, Вячеслав Невинный, Борис Щербаков, Вячеслав Баранов, Светлана Харитонова, Игорь Ясулович, Виктор Павлов, Сергей Никоненко, Владимир Носик, Марина Левтова, Юрий Дубровин.
    Продолжительность: 01:13:33

    Дата премьеры в СССР: 9 января 1988
    Дата выхода релиза на DVD: 22 января 2009, «Ruscico»
    Субтитры: Русские, Английские
    Вид субтитров: Вшитые отключаемые
    Видеокодек: MPEG-4 AVC/H.264
    Битрейт видео: ~2390 Кбит/сек
    Размер кадра: 704x400 (1.760:1)
    Качество видео: DVDRip
    Аудиокодек: AC3, 448 Кбит/сек, 6 каналов, 48,0 КГц

    MediaInfo:

    Общее
    Уникальный идентификатор : 196076403959902926136213089315663856146 (0x9382F118531B6757A3EE752FD7734212)
    Полное имя : ...\Гостья_из_будущего_[NNM-Club.ru]\Лиловый шар (1987).mkv
    Формат : Matroska
    Версия формата : Version 2
    Размер файла : 1,46 Гбайт
    Продолжительность : 1 ч. 13 м.
    Общий поток : 2840 Кбит/сек
    Название фильма : Лиловый шар (1987)
    Дата кодирования : UTC 2012-01-06 17:16:16
    Программа кодирования : mkvmerge v5.2.1 ('A Far Off Place') built on Jan 2 2012 23:21:10
    Библиотека кодирования : libebml v1.2.3 + libmatroska v1.3.0
    Видео
    Идентификатор : 1
    Формат : AVC
    Формат/Информация : Advanced Video Codec
    Профиль формата : [url=mailto:High@L3.1]High@L3.1[/url]
    Параметр CABAC формата : Да
    Параметр ReFrames формата : 4 кадра
    Идентификатор кодека : V_MPEG4/ISO/AVC
    Продолжительность : 1 ч. 13 м.
    Битрейт : 2390 Кбит/сек
    Ширина : 704 пикселя
    Высота : 400 пикселей
    Соотношение сторон : 16:9
    Частота кадров : 25,000 кадров/сек
    Цветовое пространство : YUV
    Субдискретизация насыщенности : 4:2:0
    Битовая глубина : 8 бит
    Тип развёртки : Прогрессивная
    Бит/(Пиксели*Кадры) : 0.339
    Размер потока : 1,20 Гбайт (82%)
    Заголовок : Лиловый шар (1987)
    Библиотека кодирования : x264 core 115 r1947 b5a8ad7
    Настройки программы : cabac=1 / ref=3 / deblock=1:-1:-1 / analyse=0x3:0x113 / me=umh / subme=7 / psy=1 / psy_rd=1.00:0.15 / mixed_ref=1 / me_range=32 / chroma_me=1 / trellis=1 / 8x8dct=1 / cqm=0 / deadzone=21,11 / fast_pskip=1 / chroma_qp_offset=-3 / threads=6 / sliced_threads=0 / nr=0 / decimate=1 / interlaced=0 / bluray_compat=0 / constrained_intra=0 / bframes=3 / b_pyramid=2 / b_adapt=1 / b_bias=0 / direct=1 / weightb=1 / open_gop=0 / weightp=2 / keyint=250 / keyint_min=25 / scenecut=40 / intra_refresh=0 / rc_lookahead=40 / rc=2pass / mbtree=1 / bitrate=2390 / ratetol=1.0 / qcomp=0.60 / qpmin=0 / qpmax=69 / qpstep=4 / cplxblur=20.0 / qblur=0.5 / vbv_maxrate=17500 / vbv_bufsize=14000 / nal_hrd=none / ip_ratio=1.40 / aq=1:1.00
    Язык : Russian
    Default : Да
    Forced : Нет
    Аудио
    Идентификатор : 2
    Формат : AC-3
    Формат/Информация : Audio Coding 3
    Расширение режима : CM (complete main)
    Идентификатор кодека : A_AC3
    Продолжительность : 1 ч. 13 м.
    Вид битрейта : Постоянный
    Битрейт : 448 Кбит/сек
    Каналы : 6 каналов
    Расположение каналов : Front: L C R, Side: L R, LFE
    Частота : 48,0 КГц
    Битовая глубина : 16 бит
    Метод сжатия : С потерями
    Размер потока : 236 Мбайт (16%)
    Заголовок : AC3, 48.0 KHz, 6 channels (Front: L C R, Surround: L R, LFE), 448 Kbps, CBR
    Язык : Russian
    Default : Да
    Forced : Нет
    Текст #1
    Идентификатор : 3
    Формат : UTF-8
    Идентификатор кодека : S_TEXT/UTF8
    Идентификатор кодека/Информация : UTF-8 Plain Text
    Заголовок : Субтитры: Русские
    Язык : Russian
    Default : Нет
    Forced : Нет
    Текст #2
    Идентификатор : 4
    Формат : UTF-8
    Идентификатор кодека : S_TEXT/UTF8
    Идентификатор кодека/Информация : UTF-8 Plain Text
    Заголовок : Субтитры: Английские
    Язык : English
    Default : Нет
    Forced : Нет
    ПРИЯТНОГО ВСЕМ ПРОСМОТРА!!!Время раздачи: 24/7
    Скачать .torrent

    Скачать торрент-файл бесплатно и на максимальной скорости!

    Как скачивать? · Что такое торрент? · Рейтинг и ограничения

    !ВНИМАНИЕ!
    Сайт не распространяет и не хранит электронные версии произведений, а занимается лишь лишь предоставлением доступа к создаваемому пользователями каталогу ссылок на торрент-файлы, которые содержат только списки хеш-сумм, убедительная просьба с жалобами обращаться напрямую к пользователю. Файлы для обмена на трекере предоставлены пользователями сайта, и администрация не несёт ответственности за их содержание. Просьба не заливать файлы, защищенные авторскими правами, а также файлы нелегального содержания!


    _________________
    [Профиль] [ЛС]
    Показать сообщения:    
    Ответить на тему

    Текущее время: Сегодня, в 19:38

    Часовой пояс: GMT + 2



    Вы не можете начинать темы
    Вы не можете отвечать на сообщения
    Вы не можете редактировать свои сообщения
    Вы не можете удалять свои сообщения
    Вы не можете голосовать в опросах
    Вы не можете прикреплять файлы к сообщениям
    Вы не можете скачивать файлы