BitTorrentTracker PerecTracker.org
BitTorrentTracker PerecTracker.org
    
Регистрация  ·  Вход
 
 · 
Забыли пароль?

  • Морозко (1964) DVDRip [H.264]

    Ответить на тему
     
    Автор Сообщение

    Light

    Создавать темы 21-Сен-2016 10:38

           

    [Цитировать]

    -Морозко (1964) DVDRip [H.264]-Русское название: Морозко
    Год выпуска: 1964
    Страна: СССР
    Жанр: Фильм-сказка-Описание фильма:
    Жила-была хорошая добрая девушка Настенька. Злая мачеха заставляла ее работать, не давая продыху. Однажды она решила избавиться от падчерицы и отправила ту замерзать в зимний лес. В этих же краях жил паренек Иван. Он полюбил Настеньку, да вот только был он большим хвастуном, потому лесной колдун и превратил его в медведя.
    И Настеньке, и Ивану пришлось пройти через много испытаний, прежде чем соединить свои судьбы. И помог им в этом добрый волшебник - дедушка Морозко…
    Режиссер: Александр Роу
    Сценарий: Николай Эрдман, Михаил Вольпин
    Оператор: Дмитрий Суренский
    Композитор: Николай Будашкин
    Художник: Арсений Клопотовский
    Актеры: Александр Хвыля, Наталья Седых, Эдуард Изотов, Инна Чурикова, Павел Павленко, Вера Алтайская, Георгий Милляр, Галина Борисова, Анатолий Кубацкий, Валентин Брылеев, Татьяна Пельтцер, Татьяна Барышева, Варвара Попова, Зинаида Воркуль, Анастасия Зуева, Маргарита Корабельникова, Д. Бахтин, Юрий Чекулаев, А. Чумин, Т. Харченко, Клавдия Козленкова, П. Мухин, О. Пешков, Вера Петрова, Лев Потемкин, Михаил Щербаков, Андрей Стапран, Константин Старостин, Александр Тимонтаев, Ольга Юкина, Татьяна Юкина, Владислав Жуковский, Наталья Зорина.
    Продолжительность: 01:18:49
    Язык субтитров: Русский, Английский, Французский, Испанский, Португальский, Немецкий, Нидерлады, Итальянский, Японский
    Вид субтитров: Вшитые

    Видеокодек: MPEG-4 AVC/H.264
    Битрейт видео: ~2382 kbps avg, 0,0.228 bit/pixel
    Размер кадра: 716x572 @ 781x572, 25.0 fps
    Качество видео: DVDRip
    Аудиокодек: AC3, 6 channels
    Битрейт аудио: 448.00 kbps avg, 48.0 KHz Русский (оригинальная)
    Аудио# 2 (отдельным файлом): английский (дубляж), AC3, 448.00 kbps avg, 48.0 KHz, 6 channels
    Аудио# 3 (отдельным файлом): французский (дубляж), AC3, 448.00 kbps avg, 48.0 KHz, 6 channels

    Субтитры

    Субтитры 1: Русский / Russian, SRT
    Субтитры 2: Английский / English, SRT
    Субтитры 3: Франзузкий / Francais, SRT
    Субтитры 4: Испанский / Espanol, SRT
    Субтитры 5: Португальский / Portugues, SRT
    Субтитры 6: Немецкий / Deutsch, SRT
    Субтитры 7: Нидерлады / Nederlands, SRT
    Субтитры 8: Итальянский / Italiano, SRT
    Субтитры 9: Японский / Japanese, V

    MediaInfo

    General
    Complete name : 1964_morozko_dvdrip-avc\1964_morozko_dvdrip-avc.mkv
    Format : Matroska
    Format version : Version 1
    File size : 1.56 GiB
    Duration : 1h 18mn
    Overall bit rate : 2 835 Kbps
    Movie name : Морозко (1964)
    Encoded date : UTC 2011-03-08 21:38:50
    Writing application : mkvmerge v2.2.0 ('Turn It On Again') built on Mar 4 2008 12:58:26
    Writing library : libebml v0.7.7 + libmatroska v0.8.1
    Video
    ID : 1
    Format : AVC
    Format/Info : Advanced Video Codec
    Format profile : [url=mailto:High@L4.0]High@L4.0[/url]
    Format settings, CABAC : Yes
    Format settings, ReFrames : 15 frames
    Codec ID : V_MPEG4/ISO/AVC
    Duration : 1h 18mn
    Bit rate : 2 331 Kbps
    Width : 716 pixels
    Height : 572 pixels
    Display aspect ratio : 4:3
    Original display aspect ratio : 5:4
    Frame rate : 25.000 fps
    Color space : YUV
    Chroma subsampling : 4:2:0
    Bit depth : 8 bits
    Scan type : Progressive
    Bits/(Pixel*Frame) : 0.228
    Stream size : 1.28 GiB (82%)
    Title : Video
    Writing library : x264 core 68 r1181M 49bf767
    Encoding settings : cabac=1 / ref=15 / deblock=1:-2:-1 / analyse=0x3:0x133 / me=umh / subme=9 / psy_rd=1.0:0.0 / mixed_ref=1 / me_range=48 / chroma_me=0 / trellis=2 / 8x8dct=1 / cqm=0 / deadzone=21,11 / chroma_qp_offset=-2 / threads=6 / nr=0 / decimate=1 / mbaff=0 / bframes=5 / b_pyramid=1 / b_adapt=2 / b_bias=0 / direct=1 / wpredb=1 / keyint=250 / keyint_min=25 / scenecut=40 / rc=crf / crf=19.9 / qcomp=0.60 / qpmin=10 / qpmax=51 / qpstep=4 / ip_ratio=1.40 / pb_ratio=1.30 / aq=1:1.00
    Language : Russian
    Audio
    ID : 2
    Format : AC-3
    Format/Info : Audio Coding 3
    Mode extension : CM (complete main)
    Codec ID : A_AC3
    Duration : 1h 18mn
    Bit rate mode : Constant
    Bit rate : 448 Kbps
    Channel(s) : 6 channels
    Channel positions : Front: L C R, Side: L R, LFE
    Sampling rate : 48.0 KHz
    Bit depth : 16 bits
    Compression mode : Lossy
    Stream size : 253 MiB (16%)
    Title : RUS 5.1
    Language : Russian
    Text #1
    ID : 3
    Format : UTF-8
    Codec ID : S_TEXT/UTF8
    Codec ID/Info : UTF-8 Plain Text
    Title : Russian
    Language : Russian
    Text #2
    ID : 4
    Format : UTF-8
    Codec ID : S_TEXT/UTF8
    Codec ID/Info : UTF-8 Plain Text
    Title : English
    Language : English
    Text #3
    ID : 5
    Format : UTF-8
    Codec ID : S_TEXT/UTF8
    Codec ID/Info : UTF-8 Plain Text
    Title : Francais
    Language : French
    Text #4
    ID : 6
    Format : UTF-8
    Codec ID : S_TEXT/UTF8
    Codec ID/Info : UTF-8 Plain Text
    Title : Espanol
    Language : Spanish
    Text #5
    ID : 7
    Format : UTF-8
    Codec ID : S_TEXT/UTF8
    Codec ID/Info : UTF-8 Plain Text
    Title : Portugues
    Language : Portuguese
    Text #6
    ID : 8
    Format : UTF-8
    Codec ID : S_TEXT/UTF8
    Codec ID/Info : UTF-8 Plain Text
    Title : Deutsch
    Language : German
    Text #7
    ID : 9
    Format : UTF-8
    Codec ID : S_TEXT/UTF8
    Codec ID/Info : UTF-8 Plain Text
    Title : Nederlands
    Language : Dutch
    Text #8
    ID : 10
    Format : UTF-8
    Codec ID : S_TEXT/UTF8
    Codec ID/Info : UTF-8 Plain Text
    Title : Italiano
    Language : Italian
    Text #9
    ID : 11
    Format : VobSub
    Muxing mode : zlib
    Codec ID : S_VOBSUB
    Codec ID/Info : The same subtitle format used on DVDs
    Title : Japanese
    Language : Japanese
    Скриншоты:

    Дополнительные скриншоты


    Скачать .torrent

    Скачать торрент-файл бесплатно и на максимальной скорости!

    Как скачивать? · Что такое торрент? · Рейтинг и ограничения

    !ВНИМАНИЕ!
    Сайт не распространяет и не хранит электронные версии произведений, а занимается лишь лишь предоставлением доступа к создаваемому пользователями каталогу ссылок на торрент-файлы, которые содержат только списки хеш-сумм, убедительная просьба с жалобами обращаться напрямую к пользователю. Файлы для обмена на трекере предоставлены пользователями сайта, и администрация не несёт ответственности за их содержание. Просьба не заливать файлы, защищенные авторскими правами, а также файлы нелегального содержания!


    _________________
    [Профиль] [ЛС]
    Показать сообщения:    
    Ответить на тему

    Текущее время: Сегодня, в 18:32

    Часовой пояс: GMT + 2



    Вы не можете начинать темы
    Вы не можете отвечать на сообщения
    Вы не можете редактировать свои сообщения
    Вы не можете удалять свои сообщения
    Вы не можете голосовать в опросах
    Вы не можете прикреплять файлы к сообщениям
    Вы не можете скачивать файлы