BitTorrentTracker PerecTracker.org
BitTorrentTracker PerecTracker.org
    
Регистрация  ·  Вход
 
 · 
Забыли пароль?

  • [ATV3] Тарзан. Легенда / The Legend of Tarzan (Дэвид Йэтс / David Yates ) [2016, США, Великобритания, Канада , Боевик, драма, мелодрама, приключения, WEB-DL, HD (1080p)] DUB + Original + sub (rus, eng)

    Ответить на тему
     
    Автор Сообщение

    rechyn

    Создавать темы 21-Сен-2016 05:10

           

    [Цитировать]

    Тарзан. Легенда / The Legend of Tarzan
    «Human. Nature»
    6.593 / 10 6.50 / 10
    -Год выпуска: 2016
    Страна: США, Великобритания, Канада
    Жанр: Боевик, драма, мелодрама, приключения
    Продолжительность: 01:49:56
    Перевод: Дублированный (iTunes)
    Оригинальная аудиодорожка: Есть
    Cубтитры: Русские форсированные, Русские, Английские
    Режиссёр: Дэвид Йэтс
    Сценарий: Адам Козад, Крэйг Брюэр, Эдгар Райс Берроуз
    Продюсер: Дэвид Баррон, Брюс Берман, Скотт Черрин
    Оператор: Генри Брэхам
    Композитор: Руперт Грегсон-Уильямс
    Художник: Стюарт Крэйг, Дэвид Оллдей, Рави Бансал
    Монтаж: Марк Дэй
    В ролях: Александр Скарсгард, Марго Робби, Сэмюэл Л. Джексон, Кристоф Вальц, Джимон Хонсу, Джим Бродбент, Каспер Крамп, Хэдли Фрайзер, Женевьев О’Рейли, Саймон Расселл Бил
    Бюджет: $180 000 000
    Сборы в США: $126 643 061
    Сборы в мире: + $229 300 000 = $355 943 061
    Сборы в России: $8 485 513
    Мировая премьера: 27 июня 2016
    Премьера (РФ): 30 июня 2016, «Каро-Премьер»
    Описание: Приспособившийся к жизни в Лондоне Тарзан возвращается в свой бывший дом, в джунгли, чтобы разобраться в том, что происходит в лагере горнодобывающей компании.-Качество исходника: WEB-DL 1080p (HDClub)
    Качество: WEB-DL
    Тип: HD (1080p)
    Контейнер: M4V
    Видео: H.264, 1916x796, 2.40:1, 4 519 Kbps, 23.976 fps
    Аудио 1: Русский/Дублированный (iTunes), AAC / 2.0 / 160 Kbps / 48.0 KHz
    Аудио 2: Английский/Оригинальная дорожка , AAC / 2.0 / 160 Kbps / 48.0 KHz
    Аудио 3: Русский/Дублированный (iTunes), AC-3 / 5.1 / 384 Kbps / 48.0 KHz
    Аудио 4: Английский/Оригинальная дорожка , AC-3 / 5.1 / 384 Kbps / 48.0 KHz
    Субтитры 1: Русские форсированные
    Субтитры 2: Русские полные
    Субтитры 3: Английские полные
    -

    iTunes Meta Tags

    Sort Name: Legend of Tarzan
    XID: Apple:vendor_id:2016-462491
    contentID: 1129690427
    Copyright: © 2016 Edgar Rice Burroughs, Inc., Warner Bros. Entertainment Inc., Village Roadshow Films North America Inc. and RatPac-Dune Entertainment LLC. All Rights Reserved.
    Screenwriters: Адам Козад, Крэйг Брюэр, Эдгар Райс Берроуз
    Producers: Дэвид Баррон, Брюс Берман, Скотт Черрин
    Director: Дэвид Йэтс
    Cast: Александр Скарсгард, Марго Робби, Сэмюэл Л. Джексон, Кристоф Вальц, Джимон Хонсу, Джим Бродбент, Каспер Крамп, Хэдли Фрайзер, Женевьев О’Рейли, Саймон Расселл Бил, Полина Кузьминская
    Studio: Warner Bros.
    Rating: 4
    Long Description: Приспособившийся к жизни в Лондоне Тарзан возвращается в свой бывший дом, в джунгли, чтобы разобраться в том, что происходит в лагере горнодобывающей компании.
    Description: Приспособившийся к жизни в Лондоне Тарзан возвращается в свой бывший дом, в джунгли, чтобы разобраться в том, что происходит в лагере горнодобывающей компании.
    Release Date: 2016-06-27T08:00:00Z
    Genre: Action & Adventure
    Artist: David Yates
    Name: The Legend of Tarzan (2016)

    MediaInfo

    General
    Complete name : /Users/imac/HandBrake/The.Legend.of.Tarzan.WEB-DL.1080p.m4v
    Format : MPEG-4
    Codec ID : M4V
    File size : 4.31 GiB
    Duration : 1h 49mn
    Overall bit rate mode : Variable
    Overall bit rate : 5 612 Kbps
    Movie name : The Legend of Tarzan (2016)
    Performer : David Yates
    Director : Дэвид Йэтс
    Actor : Александр Скарсгард / Марго Робби / Сэмюэл Л. Джексон / Кристоф Вальц / Джимон Хонсу / Джим Бродбент / Каспер Крамп / Хэдли Фрайзер / Женевьев О’Рейли / Саймон Расселл Бил / Полина Кузьминская
    Screenplay by : Адам Козад / Крэйг Брюэр / Эдгар Райс Берроуз
    Producer : Дэвид Баррон / Брюс Берман / Скотт Черрин
    Production studio : Warner Bros.
    Genre : Action & Adventure
    ContentType : Short Film
    Description : Приспособившийся к жизни в Лондоне Тарзан возвращается в свой бывший дом, в джунгли, чтобы разобраться в том, что происходит в лагере горнодобывающей компании.
    Recorded date : UTC 2016-06-27 08:00:00
    Encoded date : UTC 2016-09-20 22:39:41
    Tagged date : UTC 2016-09-20 22:41:07
    Copyright : © 2016 Edgar Rice Burroughs, Inc., Warner Bros. Entertainment Inc., Village Roadshow Films North America Inc. and RatPac-Dune Entertainment LLC. All Rights Reserved.
    Cover : Yes
    Rating : None
    Title/Sort : Legend of Tarzan
    LongDescription : Приспособившийся к жизни в Лондоне Тарзан возвращается в свой бывший дом, в джунгли, чтобы разобраться в том, что происходит в лагере горнодобывающей компании.
    AppleStoreCatalogID : 1129690427
    Vendor : Apple:vendor_id:2016-462491
    ContentRating : mpaa|PG-13|300|
    Video #1
    ID : 1
    Format : AVC
    Format/Info : Advanced Video Codec
    Format profile : High@L4
    Format settings, CABAC : Yes
    Format settings, ReFrames : 5 frames
    Codec ID : avc1
    Codec ID/Info : Advanced Video Coding
    Duration : 1h 49mn
    Bit rate : 4 519 Kbps
    Width : 1 916 pixels
    Height : 796 pixels
    Display aspect ratio : 2.40:1
    Frame rate : 23.976 fps
    Color space : YUV
    Chroma subsampling : 4:2:0
    Bit depth : 8 bits
    Scan type : Progressive
    Bits/(Pixel*Frame) : 0.124
    Stream size : 3.47 GiB (81%)
    Title : Main Program
    Language : English
    Encoded date : UTC 2016-09-20 22:39:41
    Tagged date : UTC 2016-09-20 22:39:49
    Color range : Limited
    Color primaries : BT.709
    Transfer characteristics : BT.709
    Matrix coefficients : BT.709
    Video #2
    ID : 10
    Format : JPEG
    Codec ID : jpeg
    Duration : 1h 49mn
    Bit rate mode : Variable
    Bit rate : 266 bps
    Width : 640 pixels
    Height : 265 pixels
    Display aspect ratio : 2.40:1
    Frame rate mode : Constant
    Frame rate : 0.001 fps
    Color space : YUV
    Chroma subsampling : 4:2:0
    Bit depth : 8 bits
    Compression mode : Lossy
    Bits/(Pixel*Frame) : 1.568
    Stream size : 357 KiB (0%)
    Title : Chapter Images
    Language : English
    Encoded date : UTC 2016-09-20 22:39:56
    Tagged date : UTC 2016-09-20 22:39:57
    Audio #1
    ID : 2
    Format : AAC
    Format/Info : Advanced Audio Codec
    Format profile : LC
    Codec ID : 40
    Duration : 1h 49mn
    Bit rate mode : Variable
    Bit rate : 157 Kbps
    Maximum bit rate : 236 Kbps
    Channel(s) : 2 channels
    Channel positions : Front: L R
    Sampling rate : 48.0 KHz
    Compression mode : Lossy
    Stream size : 124 MiB (3%)
    Title : Russian Stereo
    Language : Russian
    Encoded date : UTC 2016-09-20 22:39:41
    Tagged date : UTC 2016-09-20 22:39:51
    Audio #2
    ID : 3
    Format : AAC
    Format/Info : Advanced Audio Codec
    Format profile : LC
    Codec ID : 40
    Duration : 1h 49mn
    Bit rate mode : Variable
    Bit rate : 157 Kbps
    Maximum bit rate : 217 Kbps
    Channel(s) : 2 channels
    Channel positions : Front: L R
    Sampling rate : 48.0 KHz
    Compression mode : Lossy
    Stream size : 124 MiB (3%)
    Title : English Stereo
    Language : English
    Encoded date : UTC 2016-09-20 22:39:41
    Tagged date : UTC 2016-09-20 22:39:51
    Audio #3
    ID : 4
    Format : AC-3
    Format/Info : Audio Coding 3
    Mode extension : CM (complete main)
    Format settings, Endianness : Big
    Codec ID : ac-3
    Duration : 1h 49mn
    Bit rate mode : Constant
    Bit rate : 384 Kbps
    Channel(s) : 6 channels
    Channel positions : Front: L C R, Side: L R, LFE
    Sampling rate : 48.0 KHz
    Bit depth : 16 bits
    Compression mode : Lossy
    Stream size : 302 MiB (7%)
    Title : Russian DD 5.1
    Language : Russian
    Encoded date : UTC 2016-09-20 22:39:41
    Tagged date : UTC 2016-09-20 22:39:49
    Audio #4
    ID : 5
    Format : AC-3
    Format/Info : Audio Coding 3
    Mode extension : CM (complete main)
    Format settings, Endianness : Big
    Codec ID : ac-3
    Duration : 1h 49mn
    Bit rate mode : Constant
    Bit rate : 384 Kbps
    Channel(s) : 6 channels
    Channel positions : Front: L C R, Side: L R, LFE
    Sampling rate : 48.0 KHz
    Bit depth : 16 bits
    Compression mode : Lossy
    Stream size : 302 MiB (7%)
    Title : English DD 5.1
    Language : English
    Encoded date : UTC 2016-09-20 22:39:41
    Tagged date : UTC 2016-09-20 22:39:49
    Text #1
    ID : 6
    Format : Timed Text
    Muxing mode : sbtl
    Codec ID : tx3g
    Duration : 1h 44mn
    Bit rate mode : Variable
    Bit rate : 3 bps
    Stream size : 2.49 KiB (0%)
    Title : Russian Forced
    Language : Russian
    Encoded date : UTC 2016-09-20 22:39:41
    Tagged date : UTC 2016-09-20 22:39:49
    Text #2
    ID : 7
    Format : Timed Text
    Muxing mode : sbtl
    Codec ID : tx3g
    Duration : 1h 44mn
    Bit rate mode : Variable
    Bit rate : 49 bps
    Stream size : 37.4 KiB (0%)
    Title : Russian Full
    Language : Russian
    Encoded date : UTC 2016-09-20 22:39:41
    Tagged date : UTC 2016-09-20 22:39:49
    Text #3
    ID : 8
    Format : Timed Text
    Muxing mode : sbtl
    Codec ID : tx3g
    Duration : 1h 41mn
    Bit rate mode : Variable
    Bit rate : 42 bps
    Stream size : 31.2 KiB (0%)
    Title : English SDH
    Language : English
    Encoded date : UTC 2016-09-20 22:39:41
    Tagged date : UTC 2016-09-20 22:39:49
    Menu #1
    00:00:00.000 : 1
    00:10:56.000 : 2
    00:20:47.000 : 3
    00:28:26.000 : 4
    00:40:49.000 : 5
    00:51:03.000 : 6
    01:01:15.000 : 7
    01:10:22.000 : 8
    01:20:58.000 : 9
    01:29:09.000 : 10
    01:42:05.000 : 11
    Menu #2
    ID : 9
    Codec ID : text
    Duration : 1h 49mn
    Language : English
    Encoded date : UTC 2016-09-20 22:39:52
    Tagged date : UTC 2016-09-20 22:39:52
    00:00:00.000 : 1
    00:10:56.000 : 2
    00:20:47.000 : 3
    00:28:26.000 : 4
    00:40:49.000 : 5
    00:51:03.000 : 6
    01:01:15.000 : 7
    01:10:22.000 : 8
    01:20:58.000 : 9
    01:29:09.000 : 10
    01:42:05.000 : 11
    Bit rate mode : VBR

    Скриншоты


    -

    Релиз подготовлен для просмотра на Apple TV, iPad, iPhone, iPod Touch.
    Для просмотра данного релиза на компьютере с ОС Windows рекомендуется использовать VLC media player
    Скачать .torrent

    Скачать торрент-файл бесплатно и на максимальной скорости!

    Как скачивать? · Что такое торрент? · Рейтинг и ограничения

    !ВНИМАНИЕ!
    Сайт не распространяет и не хранит электронные версии произведений, а занимается лишь лишь предоставлением доступа к создаваемому пользователями каталогу ссылок на торрент-файлы, которые содержат только списки хеш-сумм, убедительная просьба с жалобами обращаться напрямую к пользователю. Файлы для обмена на трекере предоставлены пользователями сайта, и администрация не несёт ответственности за их содержание. Просьба не заливать файлы, защищенные авторскими правами, а также файлы нелегального содержания!


    _________________
    [Профиль] [ЛС]
    Показать сообщения:    
    Ответить на тему

    Текущее время: Сегодня, в 04:25

    Часовой пояс: GMT + 2



    Вы не можете начинать темы
    Вы не можете отвечать на сообщения
    Вы не можете редактировать свои сообщения
    Вы не можете удалять свои сообщения
    Вы не можете голосовать в опросах
    Вы не можете прикреплять файлы к сообщениям
    Вы не можете скачивать файлы