BitTorrentTracker PerecTracker.org
BitTorrentTracker PerecTracker.org
    
Регистрация  ·  Вход
 
 · 
Забыли пароль?

  • Солярис / Solaris (Стивен Содерберг / Steven Soderbergh) [2002, США, фантастика, драма, WEB-DL 1080p] Dub + 2x MVO + AVO + Original Eng + Sub Rus, Eng

    Ответить на тему
     
    Автор Сообщение

    Light

    Создавать темы 21-Сен-2016 00:55

           

    [Цитировать]

    Солярис / Solaris-Страна: США
    Студия: 20th Century Fox
    Жанр: Фантастика, Драма
    Год выпуска: 2002
    Продолжительность: 01:38:30
    Перевод 1: Профессиональный (дублированный) Дубляж
    Перевод 2: Профессиональный (многоголосый закадровый) #1
    Перевод 3: Профессиональный (многоголосый закадровый) #2
    Перевод 4: Авторский (одноголосый закадровый) Е. Рудой
    Cубтитры: Русские, Английские
    Оригинальная аудиодорожка: Английский
    Режиссер: Стивен Содерберг / Steven Soderbergh
    В ролях: Джордж Клуни, Наташа МакЭлхоун, Виола Дэвис, Джереми Дейвис, Ульрих Тукур, Джон Чо, Морган Руслер, Шэйн Скелтон, Донна Кимболл, Майкл Энсайн.
    Описание: На космическую станцию, движущейся по орбите загадочной планеты Солярис, прибывает психолог Крис Кельвин. Его цель — понять, что за необъяснимые вещи происходят с работающими там учеными. Крис обнаруживает, что руководитель экспедиции и его старый друг погиб при таинственных обстоятельствах. А вскоре и сам сталкивается с силой, стоящей за гранью человеческого понимания…-Рейтинг
    -Сэмпл
    Тип релиза: WEB-DL 1080p
    Контейнер: MKV
    Видео: 1920x816 (2,35:1), 23.976 fps, x264, ~15000 kbps
    Аудио 1: Russian: 48 kHz, AC3, 3/2 (L,C,R,l,r) + LFE ch, ~448 kbps | Дубляж
    Аудио 2: Russian: 48 kHz, MPEG Layer 3, 2/0 (L,R) ch, ~95.59 kbps | Многоголосый закадровый #1
    Аудио 3: Russian: 48 kHz, AC3, 3/2 (L,C,R,l,r) + LFE ch, ~448 kbps | Многоголосый закадровый #2
    Аудио 4: Russian: 48 kHz, E-AC3, 3/2 (L,C,R,l,r) + LFE ch, ~640 kbps | Одноголосый закадровый, Е. Рудой
    Аудио 5: English: 48 kHz, E-AC3, 3/2 (L,C,R,l,r) + LFE ch, ~640 kbps
    Субтитры: Русские, Английские
    Формат субтитров: softsub (SRT)

    Дополнительно

    За дорожки спасибо lenutah, MIKA_2011, Fintul.
    За работу над дорожкой №4 спасибо Skazhutin.

    MediaInfo

    Общее
    Unique ID : 247925465947920194199459450023868288532 (0xBA84B537EB976E2ABD5F6A4FACB2CE14)
    Complete name : E:\video_rutracker\Solaris.2002.1080p.WEB-DL.4xRus.Eng.x264.mkv
    Format : Matroska
    Format version : Version 2
    File size : 9,27 Гбайт
    Duration : 1 ч. 38 м.
    Overall bit rate mode : Переменный
    Overall bit rate : 13,5 Мбит/сек
    Movie name : Solaris.2002.1080p.WEB-DL | RuTracker | igrok2012
    Encoded date : UTC 2016-09-20 16:06:11
    Writing application : mkvmerge v8.3.0 ('Over the Horizon') 64bit
    Writing library : libebml v1.3.1 + libmatroska v1.4.2
    Cover : Yes
    Attachments : cover.jpg
    Видео
    ID : 1
    Format : AVC
    Format/Info : Advanced Video Codec
    Format profile : High@L4
    Format settings, CABAC : Да
    Format settings, ReFrames : 4 кадра
    Codec ID : V_MPEG4/ISO/AVC
    Duration : 1 ч. 38 м.
    Bit rate mode : Переменный
    Maximum bit rate : 15,0 Мбит/сек
    Width : 1920 пикселей
    Height : 816 пикселей
    Display aspect ratio : 2,35:1
    Frame rate mode : Постоянный
    Frame rate : 23,976 (24000/1001) кадра/сек
    Color space : YUV
    Chroma subsampling : 4:2:0
    Bit depth : 8 бит
    Scan type : Прогрессивная
    Writing library : x264 core 148 r2623 d5b2374
    Encoding settings : cabac=1 / ref=4 / deblock=1:-1:-1 / analyse=0x3:0x133 / me=umh / subme=9 / psy=1 / psy_rd=1.00:0.15 / mixed_ref=1 / me_range=24 / chroma_me=1 / trellis=2 / 8x8dct=1 / cqm=0 / deadzone=21,11 / fast_pskip=1 / chroma_qp_offset=-3 / threads=25 / lookahead_threads=4 / sliced_threads=0 / nr=150 / decimate=1 / interlaced=0 / bluray_compat=0 / constrained_intra=0 / bframes=8 / b_pyramid=2 / b_adapt=2 / b_bias=0 / direct=3 / weightb=1 / open_gop=0 / weightp=2 / keyint=120 / keyint_min=61 / scenecut=0 / intra_refresh=0 / rc_lookahead=120 / rc=crf / mbtree=1 / crf=18.0 / qcomp=0.60 / qpmin=0 / qpmax=69 / qpstep=4 / vbv_maxrate=15000 / vbv_bufsize=31250 / crf_max=0.0 / nal_hrd=vbr / filler=0 / ip_ratio=1.40 / aq=3:1.00
    Language : English
    Default : Да
    Forced : Нет
    Color range : Limited
    Color primaries : BT.709
    Transfer characteristics : BT.709
    Matrix coefficients : BT.709
    Аудио #1
    ID : 2
    Format : AC-3
    Format/Info : Audio Coding 3
    Mode extension : CM (complete main)
    Format settings, Endianness : Big
    Codec ID : A_AC3
    Duration : 1 ч. 38 м.
    Bit rate mode : Постоянный
    Bit rate : 448 Кбит/сек
    Channel(s) : 6 каналов
    Channel positions : Front: L C R, Side: L R, LFE
    Sampling rate : 48,0 КГц
    Frame rate : 31,250 кадров/сек (1536 spf)
    Compression mode : С потерями
    Delay relative to video : -83 мс.
    Stream size : 316 Мбайт (3%)
    Title : Дубляж
    Language : Russian
    Default : Да
    Forced : Нет
    Аудио #2
    ID : 3
    Format : MPEG Audio
    Format version : Version 1
    Format profile : Layer 3
    Mode : Joint stereo
    Mode extension : MS Stereo
    Codec ID : A_MPEG/L3
    Codec ID/Hint : MP3
    Duration : 1 ч. 38 м.
    Bit rate mode : Переменный
    Channel(s) : 2 канала
    Sampling rate : 48,0 КГц
    Compression mode : С потерями
    Delay relative to video : -83 мс.
    Title : Многоголосый закадровый #1
    Language : Russian
    Default : Нет
    Forced : Нет
    Аудио #3
    ID : 4
    Format : AC-3
    Format/Info : Audio Coding 3
    Mode extension : CM (complete main)
    Format settings, Endianness : Big
    Codec ID : A_AC3
    Duration : 1 ч. 38 м.
    Bit rate mode : Постоянный
    Bit rate : 448 Кбит/сек
    Channel(s) : 6 каналов
    Channel positions : Front: L C R, Side: L R, LFE
    Sampling rate : 48,0 КГц
    Frame rate : 31,250 кадров/сек (1536 spf)
    Compression mode : С потерями
    Delay relative to video : -83 мс.
    Stream size : 316 Мбайт (3%)
    Title : Многоголосый закадровый #2
    Language : Russian
    Default : Нет
    Forced : Нет
    Аудио #4
    ID : 5
    Format : E-AC-3
    Format/Info : Audio Coding 3
    Format settings, Endianness : Big
    Codec ID : A_EAC3
    Duration : 1 ч. 38 м.
    Bit rate mode : Постоянный
    Bit rate : 640 Кбит/сек
    Channel(s) : 6 каналов
    Channel positions : Front: L C R, Side: L R, LFE
    Sampling rate : 48,0 КГц
    Frame rate : 187,500 кадров/сек (256 spf)
    Compression mode : С потерями
    Delay relative to video : -83 мс.
    Stream size : 451 Мбайт (5%)
    Title : Одноголосый закадровый, Е. Рудой
    Language : Russian
    Default : Нет
    Forced : Нет
    Аудио #5
    ID : 6
    Format : E-AC-3
    Format/Info : Audio Coding 3
    Format settings, Endianness : Big
    Codec ID : A_EAC3
    Duration : 1 ч. 38 м.
    Bit rate mode : Постоянный
    Bit rate : 640 Кбит/сек
    Channel(s) : 6 каналов
    Channel positions : Front: L C R, Side: L R, LFE
    Sampling rate : 48,0 КГц
    Frame rate : 187,500 кадров/сек (256 spf)
    Compression mode : С потерями
    Delay relative to video : -83 мс.
    Stream size : 451 Мбайт (5%)
    Language : English
    Default : Нет
    Forced : Нет
    Текст #1
    ID : 7
    Format : UTF-8
    Codec ID : S_TEXT/UTF8
    Codec ID/Info : UTF-8 Plain Text
    Language : Russian
    Default : Нет
    Forced : Нет
    Текст #2
    ID : 8
    Format : UTF-8
    Codec ID : S_TEXT/UTF8
    Codec ID/Info : UTF-8 Plain Text
    Language : English
    Default : Нет
    Forced : Нет
    Меню
    00:00:00.000 : en:Chapter 1
    00:00:41.000 : en:Chapter 2
    00:03:56.000 : en:Chapter 3
    00:07:08.000 : en:Chapter 4
    00:11:37.000 : en:Chapter 5
    00:15:03.000 : en:Chapter 6
    00:16:31.000 : en:Chapter 7
    00:20:13.000 : en:Chapter 8
    00:24:35.000 : en:Chapter 9
    00:28:53.000 : en:Chapter 10
    00:33:41.000 : en:Chapter 11
    00:36:20.000 : en:Chapter 12
    00:39:55.000 : en:Chapter 13
    00:43:01.000 : en:Chapter 14
    00:46:36.000 : en:Chapter 15
    00:49:35.000 : en:Chapter 16
    00:54:08.000 : en:Chapter 17
    00:57:11.000 : en:Chapter 18
    00:59:16.000 : en:Chapter 19
    01:02:22.000 : en:Chapter 20
    01:06:31.000 : en:Chapter 21
    01:09:06.000 : en:Chapter 22
    01:11:16.000 : en:Chapter 23
    01:16:20.000 : en:Chapter 24
    01:19:45.000 : en:Chapter 25
    01:22:33.000 : en:Chapter 26
    01:26:20.000 : en:Chapter 27
    01:29:54.000 : en:Chapter 28
    01:32:36.000 : en:Chapter 29

    Скриншоты

    Скачать .torrent

    Скачать торрент-файл бесплатно и на максимальной скорости!

    Как скачивать? · Что такое торрент? · Рейтинг и ограничения

    !ВНИМАНИЕ!
    Сайт не распространяет и не хранит электронные версии произведений, а занимается лишь лишь предоставлением доступа к создаваемому пользователями каталогу ссылок на торрент-файлы, которые содержат только списки хеш-сумм, убедительная просьба с жалобами обращаться напрямую к пользователю. Файлы для обмена на трекере предоставлены пользователями сайта, и администрация не несёт ответственности за их содержание. Просьба не заливать файлы, защищенные авторскими правами, а также файлы нелегального содержания!


    _________________
    [Профиль] [ЛС]
    Показать сообщения:    
    Ответить на тему

    Текущее время: Сегодня, в 23:56

    Часовой пояс: GMT + 2



    Вы не можете начинать темы
    Вы не можете отвечать на сообщения
    Вы не можете редактировать свои сообщения
    Вы не можете удалять свои сообщения
    Вы не можете голосовать в опросах
    Вы не можете прикреплять файлы к сообщениям
    Вы не можете скачивать файлы