BitTorrentTracker PerecTracker.org
BitTorrentTracker PerecTracker.org
    
Регистрация  ·  Вход
 
 · 
Забыли пароль?

  • Всё о мужчинах (Михаил Жерневский, Леонид Марголин) [2016, Комедия, WEB-DL 1080p , AVC]

    Ответить на тему
     
    Автор Сообщение

    Flirldrerve

    Создавать темы 20-Сен-2016 20:35

           

    [Цитировать]

    Всё о мужчинах
    Жанр: Комедия
    Год выпуска: 2016
    Продолжительность: 01:18:52
    Режиссёр: Михаил Жерневский, Леонид Марголин
    В ролях: Дмитрий Нагиев, Анна Хилькевич, Игорь Верник, Сергей Белоголовцев, Грант Тохатян, Владимир Епифанцев, Екатерина Скулкина, Елена Борщева, Виктор Степанян, Ян Цапник
    Описание: Это история о том, какими разными могут быть мужчины. О том, что мужчины — это, в первую очередь, сложные решения и настоящие поступки. О том, в чем мужчины могут быть сильны, а в чем комичны. О том, за что их можно и нужно любить...
    Сэмпл: http://multi-up.com/1118879
    Качество видео: WEB-DL 1080p
    Формат видео: MKV
    Видео: 1920x1080 (2,25:1), 24,000 fps, MPEG-4 AVC, ~3363 kbps avg, 0.351 bit/pixel
    Аудио: 48.0 kHz, AAC, 2 ch, ~125 kbps

    MediaInfo

    Общее
    Уникальный идентификатор : 218986795834211877953080608668955365005 (0xA4BF529FE44030B593806FAE574ACE8D)
    Формат : Matroska
    Версия формата : Version 4 / Version 2
    Размер файла : 1,92 Гбайт
    Продолжительность : 1 ч. 18 м.
    Общий поток : 3490 Кбит/сек
    Дата кодирования : UTC 2016-09-20 15:02:53
    Программа кодирования : mkvmerge v9.4.2 ('So High') 64bit
    Библиотека кодирования : libebml v1.3.4 + libmatroska v1.4.5
    Видео
    Идентификатор : 1
    Формат : AVC
    Формат/Информация : Advanced Video Codec
    Профиль формата : High@L4
    Параметр CABAC формата : Да
    Параметр ReFrames формата : 3 кадра
    Идентификатор кодека : V_MPEG4/ISO/AVC
    Продолжительность : 1 ч. 18 м.
    Битрейт : 3363 Кбит/сек
    Ширина : 1920 пикселей
    Высота : 1080 пикселей
    Соотношение сторон : 16:9
    Режим частоты кадров : Постоянный
    Частота кадров : 24,000 кадра/сек
    Цветовое пространство : YUV
    Субдискретизация насыщенности : 4:2:0
    Битовая глубина : 8 бит
    Тип развёртки : Прогрессивная
    Бит/(Пиксели*Кадры) : 0.068
    Размер потока : 1,85 Гбайт (96%)
    Язык : Russian
    Default : Да
    Forced : Нет
    Аудио
    Идентификатор : 2
    Формат : AAC
    Формат/Информация : Advanced Audio Codec
    Профиль формата : LC
    Идентификатор кодека : A_AAC
    Продолжительность : 1 ч. 18 м.
    Битрейт : 125 Кбит/сек
    Каналы : 2 канала
    Расположение каналов : Front: L R
    Частота : 48,0 КГц
    Частота кадров : 46,875 кадров/сек (1024 spf)
    Метод сжатия : С потерями
    Размер потока : 70,7 Мбайт (4%)
    Язык : Russian
    Default : Да
    Forced : Нет

    Скриншот c названием фильма

    Скриншоты

    Скачать .torrent

    Скачать торрент-файл бесплатно и на максимальной скорости!

    Как скачивать? · Что такое торрент? · Рейтинг и ограничения

    !ВНИМАНИЕ!
    Сайт не распространяет и не хранит электронные версии произведений, а занимается лишь лишь предоставлением доступа к создаваемому пользователями каталогу ссылок на торрент-файлы, которые содержат только списки хеш-сумм, убедительная просьба с жалобами обращаться напрямую к пользователю. Файлы для обмена на трекере предоставлены пользователями сайта, и администрация не несёт ответственности за их содержание. Просьба не заливать файлы, защищенные авторскими правами, а также файлы нелегального содержания!


    _________________
    [Профиль] [ЛС]
    Показать сообщения:    
    Ответить на тему

    Текущее время: Сегодня, в 06:53

    Часовой пояс: GMT + 2



    Вы не можете начинать темы
    Вы не можете отвечать на сообщения
    Вы не можете редактировать свои сообщения
    Вы не можете удалять свои сообщения
    Вы не можете голосовать в опросах
    Вы не можете прикреплять файлы к сообщениям
    Вы не можете скачивать файлы