BitTorrentTracker PerecTracker.org
BitTorrentTracker PerecTracker.org
    
Регистрация  ·  Вход
 
 · 
Забыли пароль?

  • Мужчины и женщины (Алиса Гусева) [2014, Документальный, познавательный, психология, физиология, HDTVRip]

    Ответить на тему
     
    Автор Сообщение

    Columb

    Создавать темы 20-Мар-2014 19:42

           

    [Цитировать]

    Мужчины и женщиныДата/Год выпуска: 2014
    Страна: Россия
    Жанр: Документальный, познавательный, психология, физиология
    Продолжительность: 00:49:00
    Перевод: Не требуется
    Русские субтитры: нет
    Оригинальная аудиодорожка: русский
    Режиссер: Алиса Гусева
    Описание: Почему мужчине проще "намотать" несколько лишних километров, чем спросить дорогу у прохожих? Почему женский стиль вождения вызывает у мужчин усмешку, а фраза " женская логика" уже давно стала нарицательной? В фильме принимают участие психологи, социологи, физиологи...

    качество: HDTVRip
    формат: AVI
    Видео: MPEG-4 Visual, XviD, 1412 Кбит/сек, 25,000 кадров/сек, 704 х 400 (16:9), 0.201 бит/пиксель
    Аудио: AC-3, 48,0 КГц, 384 Кбит/сек, 6 каналов (Front: L C R, Side: L R, LFE)
    Дополнительная информация:
    • Релиз подготовлен релиз группой: GeneralFilm. Rip by vsobbol
    • Исходник: semenonn
    • Релиз без всякого рода рекламы.

    MediaInfo

    ОбщееПолное имя : E:\torrent\Muzhchiny.i.zhenshiny.2014.XviD.HDTVRip.by.GeneralFilm.aviФормат : AVIФормат/Информация : Audio Video InterleaveРазмер файла : 642 МбайтПродолжительность : 49 м.Общий поток : 1806 Кбит/секПрограмма кодирования : VirtualDubMod 1.5.10.3 | www.virtualdub-fr.org || (build 2550/release)Библиотека кодирования : VirtualDubMod build 2550/release
    ВидеоИдентификатор : 0Формат : MPEG-4 VisualПрофиль формата : Advanced Simple@L5Параметр BVOP формата : 1Параметр QPel формата : НетПараметр GMC формата : Без точки переходаПараметр матрицы формата : Default (H.263)Идентификатор кодека : XVIDИдентификатор кодека/Подсказка : XviDПродолжительность : 49 м.Битрейт : 1412 Кбит/секШирина : 704 пикселяВысота : 400 пикселейСоотношение сторон : 16:9Частота кадров : 25,000 кадров/секЦветовое пространство : YUVСубдискретизация насыщенности : 4:2:0Битовая глубина : 8 битТип развёртки : ПрогрессивнаяМетод сжатия : С потерямиБит/(Пиксели*Кадры) : 0.201Размер потока : 502 Мбайт (78%)Библиотека кодирования : XviD 73
    АудиоИдентификатор : 1Формат : AC-3Формат/Информация : Audio Coding 3Расширение режима : CM (complete main)Параметр Endianness формата : BigИдентификатор кодека : 2000Продолжительность : 49 м.Вид битрейта : ПостоянныйБитрейт : 384 Кбит/секКаналы : 6 каналовРасположение каналов : Front: L C R, Side: L R, LFEЧастота : 48,0 КГцБитовая глубина : 16 битМетод сжатия : С потерямиРазмер потока : 137 Мбайт (21%)Выравнивание : Разделение по промежуткамПродолжительность промежутка : 40 мс. (1,00 видеокадр)Время предзагрузки промежутка : 500 мс.

    Скриншоты

    Скачать .torrent

    Скачать торрент-файл бесплатно и на максимальной скорости!

    Как скачивать? · Что такое торрент? · Рейтинг и ограничения

    !ВНИМАНИЕ!
    Сайт не распространяет и не хранит электронные версии произведений, а занимается лишь лишь предоставлением доступа к создаваемому пользователями каталогу ссылок на торрент-файлы, которые содержат только списки хеш-сумм, убедительная просьба с жалобами обращаться напрямую к пользователю. Файлы для обмена на трекере предоставлены пользователями сайта, и администрация не несёт ответственности за их содержание. Просьба не заливать файлы, защищенные авторскими правами, а также файлы нелегального содержания!

    [Профиль] [ЛС]
    Показать сообщения:    
    Ответить на тему

    Текущее время: Сегодня, в 12:24

    Часовой пояс: GMT + 2



    Вы не можете начинать темы
    Вы не можете отвечать на сообщения
    Вы не можете редактировать свои сообщения
    Вы не можете удалять свои сообщения
    Вы не можете голосовать в опросах
    Вы не можете прикреплять файлы к сообщениям
    Вы не можете скачивать файлы