BitTorrentTracker PerecTracker.org
BitTorrentTracker PerecTracker.org
    
Регистрация  ·  Вход
 
 · 
Забыли пароль?

  • Алиса в Зазеркалье / Alice Through the Looking Glass (Джеймс Бобин / James Bobin) [2016, США, фэнтези, приключения, семейный, WEB-DLRip] Dub (iTunes)

    Ответить на тему
     
    Автор Сообщение

    rechyn

    Создавать темы 20-Сен-2016 20:35

           

    [Цитировать]

    Алиса в Зазеркалье / Alice Through the Looking Glass
    Страна: США
    Студия: Legend3D, Roth Films, Team Todd, Tim Burton Productions, Walt Disney Pictures
    Жанр: Фэнтези, приключения, семейный
    Год выпуска: 2016
    Продолжительность: 01:52:59
    Перевод: Профессиональный (дублированный) | iTunes
    Cубтитры: Русские на надписи и пр. - (вшитые)
    Режиссер: Джеймс Бобин / James Bobin
    В ролях: Миа Васиковска, Джонни Депп, Клаудио Энкарнасьон Монтеро, Саша Барон Коэн, Энн Хэтэуэй, Хелена Бонем Картер, Алан Рикман, Эндрю Скотт, Майкл Шин, Рис Иванс
    Описание: Победив огнедышащего дракона Бармаглота и свергнув с трона Красную Королеву, Алиса возвращается в свой родной мир. Три года она плавает по китайским морям в звании капитана корабля "Чудо", перевозя торговые грузы и занимаясь делами компании своего покойного отца, Чарльза Кингсли. Но вскоре ей предстоит вновь с головой окунуться в водоворот захватывающих приключений и ярких красок дневного свечения, опередив само время, чтобы спасти своего лучшего друга, Сумасшедшего Шляпника.

    Сэмпл
    Релиз от группы MegaPeer
    Качество видео: WEB-DLRip (Исх. Alice.Through.the.Looking.Glass.2016.1080p.WEB-DL)
    Формат видео: AVI
    Видео: 624x336 (1.86:1), 23.976 fps, XviD build 73 ~786 kbps avg, 0.16 bit/pixel
    Аудио: 48 kHz, MPEG Layer 3, 2 ch, ~128.00 kbps avg

    MediaInfo

    ОбщееПолное имя : D:\Alice.Through.the.Looking.Glass.2016.WEB-DLRip.745MB.MegaPeer.aviФормат : AVIФормат/Информация : Audio Video InterleaveРазмер файла : 745 МбайтПродолжительность : 1 ч. 53 м.Общий поток : 919 Кбит/сек
    ВидеоИдентификатор : 0Формат : MPEG-4 VisualПрофиль формата : Advanced Simple@L5Параметр BVOP формата : 1Параметр QPel формата : НетПараметр GMC формата : Без точки переходаПараметр матрицы формата : ВыборочнаяИдентификатор кодека : XVIDИдентификатор кодека/Подсказка : XviDПродолжительность : 1 ч. 53 м.Битрейт : 786 Кбит/секШирина : 624 пикселяВысота : 336 пикселейСоотношение сторон : 1,85:1Частота кадров : 23,976 (24000/1001) кадра/секЦветовое пространство : YUVСубдискретизация насыщенности : 4:2:0Битовая глубина : 8 битТип развёртки : ПрогрессивнаяМетод сжатия : С потерямиБит/(Пиксели*Кадры) : 0.156Размер потока : 637 Мбайт (85%)Библиотека кодирования : XviD 73
    АудиоИдентификатор : 1Формат : MPEG AudioВерсия формата : Version 1Профиль формата : Layer 3Режим : Joint stereoИдентификатор кодека : 55Идентификатор кодека/Подсказка : MP3Продолжительность : 1 ч. 53 м.Вид битрейта : ПостоянныйБитрейт : 128 Кбит/секКаналы : 2 каналаЧастота : 48,0 КГцМетод сжатия : С потерямиРазмер потока : 104 Мбайт (14%)Выравнивание : Соединение по промежуткамПродолжительность промежутка : 167 мс. (4,00 видеокадра)Время предзагрузки промежутка : 216 мс.Заголовок : iTunesБиблиотека кодирования : LAME3.99rНастройки программы : -m j -V 4 -q 2 -lowpass 17 -b 128

    Скриншоты

    Скачать .torrent

    Скачать торрент-файл бесплатно и на максимальной скорости!

    Как скачивать? · Что такое торрент? · Рейтинг и ограничения

    !ВНИМАНИЕ!
    Сайт не распространяет и не хранит электронные версии произведений, а занимается лишь лишь предоставлением доступа к создаваемому пользователями каталогу ссылок на торрент-файлы, которые содержат только списки хеш-сумм, убедительная просьба с жалобами обращаться напрямую к пользователю. Файлы для обмена на трекере предоставлены пользователями сайта, и администрация не несёт ответственности за их содержание. Просьба не заливать файлы, защищенные авторскими правами, а также файлы нелегального содержания!


    _________________
    [Профиль] [ЛС]
    Показать сообщения:    
    Ответить на тему

    Текущее время: Сегодня, в 02:34

    Часовой пояс: GMT + 2



    Вы не можете начинать темы
    Вы не можете отвечать на сообщения
    Вы не можете редактировать свои сообщения
    Вы не можете удалять свои сообщения
    Вы не можете голосовать в опросах
    Вы не можете прикреплять файлы к сообщениям
    Вы не можете скачивать файлы