BitTorrentTracker PerecTracker.org
BitTorrentTracker PerecTracker.org
    
Регистрация  ·  Вход
 
 · 
Забыли пароль?

  • Папашина армия / Dad\'s Army (Оливер Паркер / Oliver Parker) [2016, Великобритания, комедия, BDRip] Dub

    Ответить на тему
     
    Автор Сообщение

    rechyn

    Создавать темы 19-Сен-2016 21:20

           

    [Цитировать]

    Папашина армия / Dad's Army
    Страна: Великобритания
    Жанр: комедия
    Год выпуска: 2016
    Продолжительность: 01:39:53
    Перевод: Профессиональный (дублированный)
    Cубтитры: нет
    Оригинальная аудиодорожка: нет-Режиссер: Оливер Паркер / Oliver Parker-В ролях: Кэтрин Зета-Джонс, Билл Найи, Тоби Джонс, Майкл Гэмбон, Сара Ланкашир, Марк Гейтисс, Дэниэл Мейс, Элисон Стэдмен, Том Кортни, Блейк Харрисон-Описание: Англия. Вторая Мировая война. Журналистка для освещения военных действий отправляется в прибрежный город, где расположен взвод, охраняющий побережье.-Релиз от: -Качество видео: BDRip | Blu-ray disc 1080p
    Формат видео: AVI
    Видео: 688x288 (2.39:1), 23.976 fps, XviD build 73 ~908 kbps avg, 0.19 bit/pixel
    Аудио: 48 kHz, MPEG Layer 3, 2 ch, ~128.00 kbps avg-
    • Скачать сэмпл-

    MI

    Формат                                   : AVI
    Формат/Информация                        : Audio Video Interleave
    Размер файла                             : 747 Мбайт
    Продолжительность                        : 1 ч. 39 м.
    Общий поток                              : 1046 Кбит/сек
    Программа кодирования                    : VirtualDubMod 1.5.10.3 | www.virtualdub-fr.org || (build 2550/release)
    Библиотека кодирования                   : VirtualDubMod build 2550/release
    Видео
    Идентификатор                            : 0
    Формат                                   : MPEG-4 Visual
    Профиль формата                          : Advanced Simple@L5
    Параметр BVOP формата                    : 1
    Параметр QPel формата                    : Нет
    Параметр GMC формата                     : Без точки перехода
    Параметр матрицы формата                 : Выборочная
    Идентификатор кодека                     : XVID
    Идентификатор кодека/Подсказка           : XviD
    Продолжительность                        : 1 ч. 39 м.
    Битрейт                                  : 909 Кбит/сек
    Ширина                                   : 688 пикселей
    Высота                                   : 288 пикселей
    Соотношение сторон                       : 2,40:1
    Частота кадров                           : 23,976 (23976/1000) кадра/сек
    Цветовое пространство                    : YUV
    Субдискретизация насыщенности            : 4:2:0
    Битовая глубина                          : 8 бит
    Тип развёртки                            : Прогрессивная
    Метод сжатия                             : С потерями
    Бит/(Пиксели*Кадры)                      : 0.191
    Размер потока                            : 649 Мбайт (87%)
    Библиотека кодирования                   : XviD 73
    Аудио
    Идентификатор                            : 1
    Формат                                   : MPEG Audio
    Версия формата                           : Version 1
    Профиль формата                          : Layer 3
    Идентификатор кодека                     : 55
    Идентификатор кодека/Подсказка           : MP3
    Продолжительность                        : 1 ч. 39 м.
    Вид битрейта                             : Постоянный
    Битрейт                                  : 128 Кбит/сек
    Каналы                                   : 2 канала
    Частота                                  : 48,0 КГц
    Метод сжатия                             : С потерями
    Размер потока                            : 91,5 Мбайт (12%)
    Выравнивание                             : Соединение по промежуткам
    Продолжительность промежутка             : 42  мс. (1,00 видеокадр)
    Время предзагрузки промежутка            : 504  мс.
    Библиотека кодирования                   : LAME3.99r
    Настройки программы                      : -m s -V 4 -q 2 -lowpass 17 -b 128

    Скриншоты

    Скачать .torrent

    Скачать торрент-файл бесплатно и на максимальной скорости!

    Как скачивать? · Что такое торрент? · Рейтинг и ограничения

    !ВНИМАНИЕ!
    Сайт не распространяет и не хранит электронные версии произведений, а занимается лишь лишь предоставлением доступа к создаваемому пользователями каталогу ссылок на торрент-файлы, которые содержат только списки хеш-сумм, убедительная просьба с жалобами обращаться напрямую к пользователю. Файлы для обмена на трекере предоставлены пользователями сайта, и администрация не несёт ответственности за их содержание. Просьба не заливать файлы, защищенные авторскими правами, а также файлы нелегального содержания!


    _________________
    [Профиль] [ЛС]
    Показать сообщения:    
    Ответить на тему

    Текущее время: Сегодня, в 00:28

    Часовой пояс: GMT + 2



    Вы не можете начинать темы
    Вы не можете отвечать на сообщения
    Вы не можете редактировать свои сообщения
    Вы не можете удалять свои сообщения
    Вы не можете голосовать в опросах
    Вы не можете прикреплять файлы к сообщениям
    Вы не можете скачивать файлы